<?xml version="1.0" standalone="no"?>
<!DOCTYPE svg PUBLIC "-//W3C//DTD SVG 1.1//EN" "http://www.w3.org/Graphics/SVG/1.1/DTD/svg11.dtd" >
<svg xmlns="http://www.w3.org/2000/svg" xmlns:xlink="http://www.w3.org/1999/xlink" version="1.1">
<metadata>
Created by FontForge 20201107 at Fri Apr 26 03:39:50 2019
 By www-data

Created by iconfont

</metadata>
<defs>
<font id="element" horiz-adv-x="1024" >
  <font-face 
    font-family="element"
    font-weight="400"
    font-stretch="normal"
    units-per-em="1024"
    panose-1="2 0 5 3 0 0 0 0 0 0"
    ascent="896"
    descent="-128"
    bbox="0 -102 1024 896"
    underline-thickness="0"
    underline-position="10"
    unicode-range="U+E6A0-E7CA"
  />
<missing-glyph 
 />
    <glyph glyph-name=".notdef" 
 />
    <glyph glyph-name="ice-cream-round" unicode="&#xe6a0;" 
d="M308 407l227 -227q10 -9 22.5 -9t22.5 9l204 204q56 59 56 135.5t-56 136.5q-60 56 -136.5 56t-135.5 -56l-204 -204q-9 -10 -9 -23t9 -22zM444 180l-136 -135q-29 -28 -67 -27.5t-66.5 29t-29 66.5t27.5 67l135 136l-45 45q-27 29 -27 68.5t27 67.5l204 204
q79 75 181 75t181 -75q75 -79 75 -181t-75 -181l-204 -204q-28 -28 -67.5 -28t-68.5 28zM399 226l-45 45l-136 -136q-9 -10 -9 -22.5t9.5 -22t22 -9.5t22.5 9zM648 610q9 -10 9 -22.5t-9 -22.5l-181 -181q-14 -13 -32 -8.5t-22.5 22.5t8.5 31l181 181q10 10 23 10t23 -10z
M738 520q10 -10 10 -23t-10 -23l-181 -180q-13 -13 -30.5 -8.5t-22.5 22.5t8 31l181 181q9 9 22.5 9t22.5 -9z" />
    <glyph glyph-name="ice-cream-square" unicode="&#xe6a3;" 
d="M416 256h256q14 0 23 9t9 23v448q0 14 -9 23t-23 9h-320q-14 0 -23 -9t-9 -23v-448q0 -14 9 -23t23 -9h64zM608 192v-160q-1 -41 -28 -68t-68 -27t-68 27t-28 68v160h-64q-41 1 -68 28t-28 68v448q1 41 28 68t68 28h320q41 -1 68 -28t28 -68v-448q-1 -41 -28 -68t-68 -28
h-64zM544 192h-64v-160q0 -14 9 -23t23 -9t23 9t9 23v160z" />
    <glyph glyph-name="lollipop" unicode="&#xe6a4;" 
d="M513 448q-4 27 10 48t40.5 26.5t47.5 -8t27 -40t-8 -48t-40 -28.5q17 -28 46.5 -39.5t61 -2.5t51 34t19.5 58h64q-2 -68 -47 -113t-113 -47q-68 2 -113 47t-47 113h1zM386 478q15 -94 81 -154.5t160 -67.5q94 -3 166 51t96 145q20 92 -19.5 172.5t-124.5 121.5
q-87 37 -173.5 13t-141.5 -101q60 41 130 45.5t134.5 -29t100.5 -93.5t37 -133h-64q-2 77 -51 130.5t-126 60.5q-77 5 -134 -40t-71 -121zM492 228l-206 -206q-30 -27 -67.5 -26.5t-66 29t-29 66t26.5 67.5l206 206q-54 109 -28 220.5t123 185.5q99 70 213.5 61t201.5 -93
q84 -87 93 -201.5t-61 -213.5q-74 -97 -185.5 -123t-220.5 28zM438 264q-25 21 -46 46l-197 -198q-13 -13 -8 -30.5t22.5 -22.5t30.5 8z" />
    <glyph glyph-name="potato-strips" unicode="&#xe6a5;" 
d="M608 672v64q0 14 -9 23t-23 9t-23 -9t-9 -23v-336h27q20 0 37 12v260zM709 512q-20 0 -37 -12v12h64v160q0 14 -9 23t-23 9t-23 -9t-9 -23v-160h37zM784 512q21 0 39.5 -9t32 -25t18.5 -35.5t1 -40.5l-60 -324q-7 -34 -33 -55.5t-62 -22.5h-416q-36 1 -62 22.5t-33 55.5
l-60 324q-4 21 1 40.5t18.5 35.5t32 25t39.5 9h-16v160q1 37 24 63.5t59.5 31t65.5 -14.5t40 -55q33 13 67 2v37q1 37 24 63.5t59.5 31t65.5 -14.5t40 -55q22 9 45.5 6.5t43.5 -16t31 -34.5t11 -45v-160h-16zM671 384q-19 -23 -45 -35.5t-55 -12.5h-118q-29 0 -55 12.5
t-45 35.5h-1v2q-6 7 -10 15l-27 47h-75q-13 0 -22 -10.5t-6 -23.5l29 -158h542l29 158q3 13 -6 23.5t-22 10.5h-75l-27 -47q-5 -8 -10 -15v-2h-1zM480 608q0 14 -9 23t-23 9t-23 -9t-9 -23v-196q17 -12 37 -12h27v208zM352 512v160q0 14 -9 23t-23 9t-23 -9t-9 -23v-160h64
h-37q20 0 37 -12v12zM253 192l19 -102q3 -11 11.5 -18.5t20.5 -7.5h416q12 0 20.5 7.5t11.5 18.5l19 102h-518z" />
    <glyph glyph-name="milk-tea" unicode="&#xe6a6;" 
d="M416 768v32q1 41 28 68t68 28h128q14 0 23 -9t9 -23t-9 -23t-23 -9h-128q-14 0 -23 -9t-9 -23v-32h320q39 -1 66 -26t29 -64t-21.5 -67.5t-61.5 -33.5l-40 -581q-2 -26 -20 -42.5t-44 -17.5h-392q-26 1 -44 17.5t-20 42.5l-40 581q-38 5 -61.5 33.5t-21.5 67.5t29 64
t66 26h192zM276 576l40 -576h392l5 71q-80 22 -126 85.5t-42 146.5q7 83 61.5 140t136.5 68l5 65h-472zM224 640h576q14 0 23 9t9 23t-9 23t-23 9h-576q-14 0 -23 -9t-9 -23t9 -23t23 -9zM717 136l22 309q-55 -11 -90.5 -50.5t-39.5 -95.5t26 -100t82 -63z" />
    <glyph glyph-name="ice-drink" unicode="&#xe6a7;" 
d="M512 448v-128h240l16 128h-256zM448 448h-192l16 -128h176v128zM512 703v-191h248q-24 86 -91.5 138t-156.5 53zM448 695q-68 -18 -116.5 -66.5t-67.5 -116.5h184v183zM512 767q116 -2 202 -71.5t111 -183.5h71q14 0 23 -9t9 -23t-9 -23t-23 -9h-64l-57 -456
q-4 -24 -21.5 -39.5t-41.5 -16.5h-400q-24 1 -41.5 16.5t-21.5 39.5l-57 456h-64q-14 0 -23 9t-9 23t9 23t23 9h71q20 95 87 161.5t162 87.5v39q1 41 28 68t68 28h128q14 0 23 -9t9 -23t-9 -23t-23 -9h-128q-14 0 -23 -9t-9 -23v-33zM744 256h-464l32 -256h400z" />
    <glyph glyph-name="ice-tea" unicode="&#xe6a9;" 
d="M198 636q24 115 110 186.5t204 73.5q118 -2 204 -73.5t110 -186.5q32 -9 51 -34t19 -58v-64q-1 -33 -20 -58.5t-52 -34.5l-49 -395q-4 -24 -21.5 -39.5t-42.5 -16.5h-398q-25 1 -42.5 16.5t-21.5 39.5l-49 395q-33 9 -52 34.5t-20 58.5v64q0 33 19 58t51 34zM264 640h496
q-24 86 -91.5 138t-156.5 54q-89 -2 -156.5 -54t-91.5 -138zM759 384h-494l48 -384h398zM224 448h576q14 0 23 9t9 23v64q0 14 -9 23t-23 9h-576q-14 0 -23 -9t-9 -23v-64q0 -14 9 -23t23 -9zM384 256h64v-64h-64v64zM576 192h64v-64h-64v64zM448 128h64v-64h-64v64z
M512 320h64v-64h-64v64z" />
    <glyph glyph-name="coffee" unicode="&#xe6aa;" 
d="M823 704h14q12 0 20.5 -7.5t10.5 -19.5l22 -128q2 -14 -7.5 -25.5t-24.5 -11.5h-49l-39 -546q-1 -13 -10 -21.5t-22 -8.5h-452q-13 0 -22 8.5t-10 21.5l-39 546h-49q-15 0 -24.5 11.5t-7.5 25.5l22 128q2 12 10.5 19.5t20.5 7.5h14l-7 94q0 14 9.5 24t22.5 10h571
q14 0 23.5 -10t8.5 -24zM758 704l5 64h-502l4 -64h493zM210 576h610l-10 64h-596l-10 -64h6zM279 512l37 -512h392l37 512h-466z" />
    <glyph glyph-name="orange" unicode="&#xe6ab;" 
d="M544 1q60 5 115 28t101 62l-183 183q-15 -9 -33 -14v-259zM805 136q39 46 62 101t28 115h-259q-5 -18 -14 -33zM895 416q-5 60 -28 115t-62 101l-183 -183q9 -15 14 -33h259zM760 677q-46 39 -101 62t-115 28v-259q18 -5 33 -14zM480 767q-60 -5 -115 -28t-101 -62
l183 -183q15 9 33 14v259zM219 632q-39 -46 -62 -101t-28 -115h259q5 18 14 33zM129 352q5 -60 28 -115t62 -101l183 183q-9 16 -14 33h-259zM264 91q46 -39 101 -62t115 -28v259q-17 5 -33 14zM512 -64q-190 5 -316.5 131.5t-131.5 316.5q5 190 131.5 316.5t316.5 131.5
q190 -5 316.5 -131.5t131.5 -316.5q-5 -190 -131.5 -316.5t-316.5 -131.5zM512 320q27 1 45 19t18 45t-18 45t-45 18t-45 -18t-18 -45t18 -45t45 -19z" />
    <glyph glyph-name="pear" unicode="&#xe6ac;" 
d="M542 637q-4 -12 -9 -25q-6 -17 -23.5 -20.5t-30 10t-6.5 30.5l1 3q-49 -12 -81.5 -47t-40.5 -84l-18 -103l-20 -15q-44 -32 -67 -74t-23 -88q3 -93 83.5 -157t204.5 -67q124 3 204.5 67t83.5 157q0 46 -23 88t-67 74l-20 15l-18 103q-9 51 -44 87t-86 46zM502 704
q12 23 26 44q35 51 79 77q12 6 24 3t19 -14.5t4 -24t-15 -19.5q-30 -19 -58 -59l-10 -15q65 -18 109 -66.5t56 -114.5l12 -78q54 -40 84.5 -94.5t31.5 -118.5q-4 -122 -103 -203.5t-249 -84.5q-150 3 -249 84.5t-103 203.5q1 64 31.5 118.5t84.5 94.5l12 78q15 80 73.5 132
t140.5 57z" />
    <glyph glyph-name="apple" unicode="&#xe6ad;" 
d="M600 692q32 8 64 5h3q23 -1 41 -4.5t38 -12.5q57 -23 112 -89q72 -94 62.5 -248t-97.5 -274l-31 -40q-14 -18 -30 -35q-23 -25 -49.5 -37.5t-60.5 -12.5q-23 -1 -42.5 3.5t-41.5 14.5l-7 3q-15 7 -25 9.5t-22.5 2.5t-23.5 -2.5t-27 -10.5l-6 -2q-21 -9 -38.5 -14
t-38.5 -6q-54 -2 -94 30t-86 103q-74 110 -93 244.5t38 241.5q35 62 93 97.5t127 37.5q24 1 47.5 -5t52.5 -18l28 -11l9 -3q25 30 35 50q20 40 41 101q4 13 15.5 18.5t24.5 1.5t18.5 -15.5t1.5 -24.5q-18 -57 -38 -98zM548 614q-21 -27 -52 -59q-9 -9 -22 -9.5t-22.5 8.5
t-10 22t8.5 23l12 13q-21 9 -45.5 17.5t-50.5 8.5q-53 -1 -98 -29t-73 -76q-52 -102 -28.5 -222.5t80.5 -203.5q26 -41 58 -73.5t73 -33.5q37 4 64 18.5t72 16.5q45 -2 71.5 -17t65.5 -17q40 1 65.5 28t61.5 76q80 110 85.5 243.5t-49.5 205.5q-55 62 -93.5 74.5t-58.5 10.5
q-31 3 -60 -6t-54 -19z" />
    <glyph glyph-name="cherry" unicode="&#xe6ae;" 
d="M261 446q21 105 63 178q36 61 113 144h-117q-14 0 -23 9t-9 23t9 23t23 9h384q14 0 23 -9t9 -23t-9 -23t-23 -9h-149q22 -59 79 -142q36 -51 63 -79.5t44 -34.5q88 -4 149 -61.5t69 -145.5q5 -89 -46.5 -155t-138.5 -83q-87 -13 -158 32t-96 129q-22 86 16 161t120 108
q-34 35 -74 93q-59 84 -85 149q-83 -87 -117.5 -147t-53.5 -147q89 -17 140.5 -85t44.5 -158q-11 -89 -74.5 -145.5t-153.5 -56.5q-91 4 -151.5 63.5t-67.5 149.5q-2 90 53 155.5t144 77.5zM288 64q68 2 113 47t47 113q-2 68 -47 113t-113 47q-68 -2 -113 -47t-47 -113
q2 -68 47 -113t113 -47zM736 128q68 2 113 47t47 113q-2 68 -47 113t-113 47q-68 -2 -113 -47t-47 -113q2 -68 47 -113t113 -47z" />
    <glyph glyph-name="watermelon" unicode="&#xe6af;" 
d="M683 296l-44 -163l-61 16l53 199l-55 55l-158 -159l-46 46l159 158l-56 56l-198 -54l-17 62l163 44l-140 140q-97 -119 -91 -264t112 -256q111 -106 256 -112t264 91zM915 155q-85 -96 -202.5 -133.5t-241.5 -8.5q-124 31 -211.5 118.5t-118.5 211.5q-29 124 8.5 241.5
t133.5 202.5z" />
    <glyph glyph-name="grape" unicode="&#xe6b0;" 
d="M544 701q29 -6 53.5 -21.5t42.5 -39.5q34 44 85.5 58t103 -7t78 -67.5t19 -101.5t-45.5 -92.5t-94 -44.5q16 -35 14 -73t-21 -71.5t-50.5 -54t-70.5 -25.5q22 -52 9 -104t-57 -86.5t-98 -34.5t-98 34.5t-57 86.5t9 104q-39 5 -70.5 25.5t-50.5 54t-21 71.5t14 73
q-56 7 -94 44.5t-45.5 92.5t19 101.5t78 67.5t103 7t85.5 -58q18 24 42.5 39.5t53.5 21.5v67h-64q-14 0 -23 9t-9 23t9 23t23 9h192q14 0 23 -9t9 -23t-9 -23t-23 -9h-64v-67zM512 448q41 1 68 28t27 68t-27 68t-68 27t-68 -27t-27 -68t27 -68t68 -28zM256 448q41 1 68 28
t27 68t-27 68t-68 27t-68 -27t-27 -68t27 -68t68 -28zM384 224q41 1 68 28t27 68t-27 68t-68 27t-68 -27t-27 -68t27 -68t68 -28zM512 0q41 1 68 28t27 68t-27 68t-68 27t-68 -27t-27 -68t27 -68t68 -28zM640 224q41 1 68 28t27 68t-27 68t-68 27t-68 -27t-27 -68t27 -68
t68 -28zM768 448q41 1 68 28t27 68t-27 68t-68 27t-68 -27t-27 -68t27 -68t68 -28z" />
    <glyph glyph-name="refrigerator" unicode="&#xe6b1;" 
d="M256 448h512v288q0 14 -9 23t-23 9h-448q-14 0 -23 -9t-9 -23v-288zM256 384v-352q0 -14 9 -23t23 -9h448q14 0 23 9t9 23v352h-512zM288 832h448q41 -1 68 -28t28 -68v-704q-1 -41 -28 -68t-68 -28h-448q-41 1 -68 28t-28 68v704q1 41 28 68t68 28zM320 608h64v-96h-64
v96zM320 320h64v-96h-64v96z" />
    <glyph glyph-name="goblet-square-full" unicode="&#xe6b2;" 
d="M256 625l16 -10l13 -9q53 -31 115 -30q22 -1 41.5 8.5t49.5 32.5v0q39 30 68 43t65 12q41 0 75.5 -15t66.5 -42l2 -2v155h-512v-143zM257 549q7 -103 69.5 -165t185.5 -64q118 1 180 58t73 152q-20 17 -40 36q-24 21 -48.5 31.5t-53.5 10.5q-22 1 -42 -8.5t-51 -33.5h-1
q-37 -29 -65.5 -42t-63.5 -12q-41 0 -76.5 9.5t-66.5 27.5zM480 257q-169 19 -230.5 119.5t-57.5 199.5v224q0 14 9 23t23 9h576q14 0 23 -9t9 -23v-224q4 -99 -57.5 -199.5t-230.5 -119.5v-257h96q14 0 23 -9t9 -23t-9 -23t-23 -9h-256q-14 0 -23 9t-9 23t9 23t23 9h96v257
z" />
    <glyph glyph-name="goblet-square" unicode="&#xe6b3;" 
d="M544 257v-257h96q14 0 23 -9t9 -23t-9 -23t-23 -9h-256q-14 0 -23 9t-9 23t9 23t23 9h96v257q-169 19 -230.5 119.5t-57.5 199.5v224q0 14 9 23t23 9h576q14 0 23 -9t9 -23v-224q4 -99 -57.5 -199.5t-230.5 -119.5zM256 576q0 -114 62.5 -184t193.5 -72q132 2 194.5 72
t61.5 184v192h-512v-192z" />
    <glyph glyph-name="goblet-full" unicode="&#xe6b4;" 
d="M256 576h512q0 118 -37 192h-434q-41 -96 -41 -192zM760 512h-496q24 -86 91.5 -138t156.5 -54q89 2 156.5 54t91.5 138zM544 258v-258h96q14 0 23 -9t9 -23t-9 -23t-23 -9h-256q-14 0 -23 9t-9 23t9 23t23 9h96v258q-125 15 -205 103.5t-83 214.5q0 128 64 256h512
q64 -96 64 -256q-3 -126 -83 -214.5t-205 -103.5z" />
    <glyph glyph-name="goblet" unicode="&#xe6b5;" 
d="M544 258v-258h96q14 0 23 -9t9 -23t-9 -23t-23 -9h-256q-14 0 -23 9t-9 23t9 23t23 9h96v258q-125 15 -205 103.5t-83 214.5q0 128 64 256h512q64 -96 64 -256q-3 -126 -83 -214.5t-205 -103.5zM256 576q3 -109 75 -181t181 -75q109 3 181 75t75 181q0 118 -37 192h-434
q-41 -96 -41 -192z" />
    <glyph glyph-name="cold-drink" unicode="&#xe6b6;" 
d="M768 832q59 -1 106 -32t70 -85.5t12.5 -110t-51.5 -98t-96.5 -54.5t-110.5 9l-218 -290v-171h96q14 0 23 -9t9 -23t-9 -23t-23 -9h-256q-14 0 -23 9t-9 23t9 23t23 9h96v171l-339 451q-13 18 -13 39v11q0 13 9 22t23 10h72l-66 83q-8 11 -6.5 24t12.5 21t23.5 6.5
t21.5 -11.5l96 -123h338q21 58 70 92.5t111 35.5zM657 704h143q14 -1 23 -10t9 -22v-11q0 -21 -13 -38l-80 -108q49 -10 91 13t58 71t-3 92t-65 64.5t-91.5 6t-71.5 -58.5v1zM299 640l129 -166q8 -11 6.5 -23.5t-12 -20.5t-23 -7t-21.5 11l-160 206h-74l304 -405l304 405
h-453z" />
    <glyph glyph-name="coffee-cup" unicode="&#xe6b8;" 
d="M768 704q53 0 97.5 -26t70.5 -72.5t24.5 -97.5t-29 -96.5t-73 -69.5t-98.5 -22q-24 -86 -91.5 -138.5t-156.5 -53.5h-192q-109 3 -181 75t-75 181v352q0 14 9 23t23 9h640q14 0 23 -9t9 -23v-32zM768 640v-256q54 1 90.5 37.5t37.5 90.5q-1 54 -37.5 90.5t-90.5 37.5z
M96 64h640q14 0 23 -9t9 -23t-9 -23t-23 -9h-640q-14 0 -23 9t-9 23t9 23t23 9zM128 704v-320q2 -82 56 -136t136 -56h192q82 2 136 56t56 136v320h-576z" />
    <glyph glyph-name="water-cup" unicode="&#xe6b9;" 
d="M736 96v640h-576v-640q1 -27 19 -45t45 -19h448q27 1 45 19t19 45zM800 640h64q40 -1 67.5 -28t28.5 -68v-224q-1 -41 -28.5 -68t-67.5 -28h-64v-128q-1 -54 -37.5 -90.5t-90.5 -37.5h-448q-54 1 -90.5 37.5t-37.5 90.5v672q0 14 9 23t23 9h640q14 0 23 -9t9 -23v-128z
M800 576v-288h64q13 0 22 9t10 23v224q-1 14 -10 23t-22 9h-64z" />
    <glyph glyph-name="hot-water" unicode="&#xe6ba;" 
d="M273 418h478v68h-478v-68zM273 350v-51q0 -38 14.5 -72t41 -61t60.5 -41t72 -14h102q38 0 72 14t60.5 41t41 61t14.5 72v51h-478zM239 555h546q14 -1 24 -10.5t10 -23.5v-222q-3 -109 -75 -181.5t-181 -74.5h-102q-52 0 -98.5 19t-82.5 55.5t-55.5 83t-19.5 98.5v222
q0 14 10 23.5t24 10.5zM512 862q14 0 24 -10t10 -24v-171q0 -14 -9.5 -24t-24.5 -10t-24.5 10t-9.5 24v171q0 14 10 24t24 10zM375 794q15 -1 24.5 -10.5t10.5 -24.5v-102q-1 -14 -10.5 -24t-24 -10t-24 10t-10.5 24v102q1 15 10.5 24.5t23.5 10.5zM649 794
q14 -1 23.5 -10.5t10.5 -24.5v-102q-1 -14 -10.5 -24t-24 -10t-24 10t-10.5 24v102q1 15 10.5 24.5t24.5 10.5zM171 -26h682q15 0 24.5 -9.5t9.5 -24t-9.5 -24.5t-24.5 -10h-682q-15 0 -24.5 10t-9.5 24.5t9.5 24t24.5 9.5z" />
    <glyph glyph-name="ice-cream" unicode="&#xe6bb;" 
d="M129 448q7 79 60.5 132t132.5 60q14 86 78 139.5t152 52.5q88 -5 147.5 -62.5t67.5 -145.5q55 -23 89 -70t39 -106h1l-347 -536q-10 -14 -27 -14t-26 14l-368 536h1zM193 448h286q-7 56 -47 91.5t-96 36.5q-56 -1 -96 -36.5t-47 -91.5zM544 448h287q-8 56 -47.5 91.5
t-96.5 36.5q-56 -1 -95.5 -36.5t-47.5 -91.5zM249 384l272 -397l257 397h-529zM512 543q31 49 81 74.5t108 22.5q-13 57 -57 92.5t-103 34.5t-101.5 -38t-53.5 -95q40 -10 72 -33.5t54 -57.5z" />
    <glyph glyph-name="dessert" unicode="&#xe6bc;" 
d="M128 480v32v16q0 32 13.5 60.5t38 49.5t55 29t62.5 3q22 73 80.5 117t134.5 45q76 -1 134.5 -45t80.5 -117q32 5 62.5 -3t55 -29t38 -49.5t13.5 -60.5v-48q-3 -153 -101 -260t-251 -123v-97h-64v97q-153 16 -251 123t-101 260zM415 512h194q-4 39 11.5 74t47.5 59
q-14 55 -56.5 88.5t-99.5 33.5t-99.5 -33.5t-56.5 -88.5q32 -24 47.5 -59t11.5 -74zM342 512q5 22 -3 42t-26.5 33t-40.5 13t-40.5 -13t-26.5 -33t-3 -42h140zM682 512h140q5 22 -3 42t-26.5 33t-40.5 13t-40.5 -13t-26.5 -33t-3 -42zM512 160q126 3 214.5 83t103.5 205
h-636q15 -125 103.5 -205t214.5 -83zM384 0h256q14 0 23 -9t9 -23t-9 -23t-23 -9h-256q-14 0 -23 9t-9 23t9 23t23 9z" />
    <glyph glyph-name="sugar" unicode="&#xe6bd;" 
d="M802 547l4 -5q38 -39 38 -90t-38 -91l-271 -271q-19 -18 -42 -28t-49 -10t-49 10t-41 28l-5 4l-19 -109q-4 -18 -15.5 -31.5t-28.5 -19t-34.5 -1t-30.5 16.5l-143 143q-12 13 -16.5 30.5t1 34.5t19 28.5t31.5 15.5l109 19l-4 5q-18 18 -28 41t-10 49t10 49t28 42l271 271
q19 18 42 28t49 10t49 -10t41 -28l5 -4l19 109q4 18 15.5 31t29 18.5t34.5 1.5t30 -17l142 -143q13 -13 17 -30t-1.5 -34.5t-18.5 -29t-31 -14.5zM253 348h447v-2l61 61q18 18 19 44h-427l-90 -90q-6 -6 -10 -13zM253 284q4 -7 10 -13l136 -136q20 -19 45.5 -19t44.5 19
l149 149h-385zM743 515l-118 118q-20 19 -45.5 19t-44.5 -19l-118 -118h326zM124 139l143 -143l24 137q2 13 -7.5 22.5t-22.5 7.5zM757 772l-24 -137q-2 -13 7.5 -22.5t22.5 -7.5l137 24z" />
    <glyph glyph-name="tableware" unicode="&#xe6be;" 
d="M714 192q64 45 102.5 111.5t46.5 144.5h-702q8 -78 46.5 -144.5t102.5 -111.5h404zM288 129q-91 59 -141 151t-51 200q0 14 9 23t23 9h768q14 0 23 -9t9 -23q-1 -108 -51 -200t-141 -151v-65q-1 -27 -19 -45t-45 -19h-320q-27 1 -45 19t-19 45v65zM493 576h-90l254 254
q13 13 31 8.5t22.5 -22.5t-8.5 -31zM681 576h-128l269 156q12 6 24.5 2.5t19 -15t3.5 -24t-15 -19.5zM352 128v-64h320v64h-320z" />
    <glyph glyph-name="burger" unicode="&#xe6bf;" 
d="M160 384q-14 0 -23 -9t-9 -23v-64q0 -13 8.5 -22t21.5 -10h706q14 0 23 9t9 23v64q0 14 -9 23t-23 9h-704zM896 443q29 -11 46.5 -35.5t17.5 -55.5v-64q0 -27 -14 -50t-38 -35l-53 -141q-11 -28 -35 -44.5t-54 -17.5h-508q-30 1 -54 17.5t-35 44.5l-53 141q-24 12 -38 35
t-14 50v64q0 31 17.5 55.5t46.5 35.5v5q5 163 114.5 270.5t272.5 110.5q163 -5 270.5 -114t110.5 -272zM832 448q-3 136 -93.5 226.5t-226.5 93.5q-136 -3 -226.5 -93.5t-93.5 -226.5h640zM512 192h-324l41 -107q3 -10 11 -15.5t18 -5.5h508q10 0 18 5.5t11 15.5l41 107
h-324z" />
    <glyph glyph-name="knife-fork" unicode="&#xe6c1;" 
d="M256 485v315q0 14 9 23t23 9t23 -9t9 -23v-315q29 11 46.5 35.5t17.5 55.5v224q0 14 9 23t23 9t23 -9t9 -23v-224q-1 -58 -36 -101t-92 -56v-451q0 -14 -9 -23t-23 -9t-23 9t-9 23v451q-57 13 -92 56t-36 101v224q0 14 9 23t23 9t23 -9t9 -23v-224q0 -31 17.5 -55.5
t46.5 -35.5zM640 736v-384h127q-5 118 -29 208q-21 82 -98 176zM640 288v-320q0 -14 -9 -23t-23 -9t-23 9t-9 23v864h64q128 -134 160 -256t32 -288h-192z" />
    <glyph glyph-name="fork-spoon" unicode="&#xe6c2;" 
d="M256 486v314q0 14 9 23t23 9t23 -9t9 -23v-314q29 10 46.5 34.5t17.5 55.5v224q0 14 9 23t23 9t23 -9t9 -23v-224q-1 -58 -36 -101t-92 -56v-451q0 -14 -9 -23t-23 -9t-23 9t-9 23v451q-57 13 -92 56t-36 101v224q0 14 9 23t23 9t23 -9t9 -23v-224q0 -31 17.5 -55.5
t46.5 -34.5zM672 324q-70 17 -114.5 86t-45.5 166q2 109 56 181t136 75q82 -3 136 -75t56 -181q-1 -97 -45.5 -166t-114.5 -86v-356q0 -14 -9 -23t-23 -9t-23 9t-9 23v356zM704 384q51 2 88.5 55t39.5 137q-2 84 -39.5 137t-88.5 55q-51 -2 -88.5 -55t-39.5 -137
q2 -84 39.5 -137t88.5 -55z" />
    <glyph glyph-name="chicken" unicode="&#xe6c3;" 
d="M350 179l129 129q-15 7 -26.5 19t-19.5 26l-128 -129l2 -9l2 -32l32 -2zM407 146q30 -30 36.5 -70t-12.5 -77.5t-54.5 -56.5t-77 -13t-71 33.5t-37.5 68.5l-2 32l-32 2q-41 9 -68.5 38t-33.5 70.5t13 77t56.5 54.5t77 12.5t69.5 -35.5l146 145q-1 78 39 168.5t110 161.5
q82 78 166.5 72t150.5 -72t72 -150.5t-73 -166.5q-70 -69 -160.5 -109.5t-169.5 -39.5zM498 372q44 -35 148.5 -1.5t190.5 114.5q57 60 53 119t-52.5 107.5t-108 53t-118.5 -52.5q-81 -87 -115 -191.5t2 -148.5zM245 187q1 20 -9 37t-28.5 25.5t-38 5t-33.5 -18t-17.5 -34
t4.5 -38t25 -28.5t37 -9l56 4zM253 59q-1 -20 9 -36.5t28.5 -25t38 -5t33.5 18t17.5 33.5t-4.5 37.5t-25 28.5t-37 9l-57 -3z" />
    <glyph glyph-name="food" unicode="&#xe6c4;" 
d="M128 543v1q1 89 48.5 160t129.5 105t165.5 17.5t147.5 -78.5q50 24 102.5 19t97 -37.5t64 -82t10.5 -103.5q28 -3 45 -25t13 -49q-44 -262 -215 -331v-43q-1 -41 -28 -68t-68 -28h-256q-41 1 -68 28t-28 68v43q-171 69 -215 331q-4 26 12 47.5t43 25.5zM192 544h64
q2 68 47 113t113 47q68 -2 113 -47t47 -113h64q-2 95 -65.5 158.5t-158.5 65.5q-95 -2 -158.5 -65.5t-65.5 -158.5zM320 544h192q-1 41 -28 68t-68 27t-68 -27t-28 -68zM759 544h69q7 29 1 57.5t-24 52.5t-44.5 37t-56.5 13q-23 0 -44 -8q18 -27 28 -58q19 5 37 -1.5t30 -22
t13 -34.5t-9 -36zM672 128h-320v-32q0 -14 9 -23t23 -9h256q14 0 23 9t9 23v32zM329 192h366q76 24 124 95t68 193h-750q20 -122 68 -193t124 -95z" />
    <glyph glyph-name="dish-1" unicode="&#xe6c5;" 
d="M384 621v51q2 54 38 90.5t90 37.5q54 -1 90 -37t38 -91v-50q162 -52 249 -188.5t66 -305.5h-886q-22 169 65.5 305.5t249.5 187.5zM96 64h832q14 0 23 -9t9 -23t-9 -23t-23 -9h-832q-14 0 -23 9t-9 23t9 23t23 9zM128 192h768q-4 163 -112.5 271.5t-271.5 112.5
q-163 -4 -271.5 -112.5t-112.5 -271.5zM576 640v32q-1 27 -19 45t-45 18t-45 -18t-19 -45v-32h128z" />
    <glyph glyph-name="dish" unicode="&#xe6c6;" 
d="M480 639v65h-96q-14 0 -23 9t-9 23t9 23t23 9h256q14 0 23 -9t9 -23t-9 -23t-23 -9h-96v-65q94 -7 176 -50t141 -116.5t83.5 -162.5t11.5 -182h-888q-13 93 11.5 182t83.5 162.5t141 116.5t176 50zM128 192h768q-4 163 -112.5 271.5t-271.5 112.5q-163 -4 -271.5 -112.5
t-112.5 -271.5zM96 64h832q14 0 23 -9t9 -23t-9 -23t-23 -9h-832q-14 0 -23 9t-9 23t9 23t23 9z" />
    <glyph glyph-name="refresh-left" unicode="&#xe6c7;" 
d="M289 599h93q14 0 23 -9t9 -22.5t-9 -22.5t-23 -10h-149q-14 1 -23 10t-9 22v149q0 14 9 23t23 9t23 -9t9 -23v-50q86 77 196.5 95.5t217.5 -26.5q106 -48 167.5 -142t62.5 -210q-4 -163 -112.5 -271.5t-271.5 -112.5q-163 4 -271.5 112.5t-112.5 271.5h64
q3 -136 93.5 -226.5t226.5 -93.5q136 3 226 93.5t94 226.5q-1 101 -56 180.5t-148 117.5q-94 35 -188.5 13.5t-163.5 -95.5z" />
    <glyph glyph-name="refresh-right" unicode="&#xe6c8;" 
d="M785 666v50q0 14 9 23t22.5 9t22.5 -9t10 -23v-149q-1 -13 -10 -22t-22 -10h-149q-14 1 -23 10t-9 22.5t9 22.5t23 9h93q-78 82 -183.5 99.5t-204.5 -34.5q-98 -54 -141 -152t-17 -208q29 -108 113.5 -173.5t196.5 -67.5q136 3 226 93.5t94 226.5h64
q-4 -163 -112.5 -271.5t-271.5 -112.5q-163 4 -271.5 112.5t-112.5 271.5q1 116 62 210t167 141q107 46 217.5 27.5t197.5 -95.5z" />
    <glyph glyph-name="warning-outline" unicode="&#xe6c9;" 
d="M512 832q190 -5 316.5 -131.5t131.5 -316.5q-5 -190 -131.5 -316.5t-316.5 -131.5q-190 5 -316.5 131.5t-131.5 316.5q5 190 131.5 316.5t316.5 131.5zM512 0q163 4 271.5 112.5t112.5 271.5q-4 163 -112.5 271.5t-271.5 112.5q-163 -4 -271.5 -112.5t-112.5 -271.5
q4 -163 112.5 -271.5t271.5 -112.5zM560 176q-1 -20 -14.5 -33.5t-33.5 -13.5t-33.5 13.5t-13.5 33.5t13.5 33.5t33.5 13.5t33.5 -13.5t14.5 -33.5zM512 640q14 0 23 -9t9 -23v-288q0 -14 -9 -23t-23 -9t-23 9t-9 23v288q0 14 9 23t23 9z" />
    <glyph glyph-name="setting" unicode="&#xe6ca;" 
d="M625 832l222 -128l-43 -75q22 -26 40 -57t30 -64h86v-256h-86q-24 -67 -70 -121l43 -75l-222 -128l-43 75q-70 -13 -140 0l-43 -75l-222 128l43 75q-23 27 -40.5 57.5t-29.5 63.5h-86v256h86q24 67 70 121l-43 75l222 128l43 -75q70 13 140 0zM649 745l-12 -20l-22 -39
l-45 8q-58 11 -116 0l-45 -8l-34 59l-110 -64l33 -59l-29 -34q-38 -45 -58 -101l-15 -43h-68v-128h67l16 -43q10 -29 24 -53t34 -48l29 -34l-33 -59l110 -64l34 59l45 -8q58 -11 116 0l45 8l34 -59l110 64l-33 59l29 34q38 46 58 101l15 43h68v128h-67l-16 43
q-9 27 -24 52.5t-34 48.5l-29 34l33 59zM512 604q95 -2 158.5 -65.5t65.5 -158.5q-2 -95 -65.5 -158.5t-158.5 -65.5q-95 2 -158.5 65.5t-65.5 158.5q2 95 65.5 158.5t158.5 65.5zM512 540q-68 -2 -113 -47t-47 -113q2 -68 47 -113t113 -47q68 2 113 47t47 113
q-2 68 -47 113t-113 47z" />
    <glyph glyph-name="phone-outline" unicode="&#xe6cb;" 
d="M79 464l513 -513q7 -7 16.5 -8.5t18.5 2.5l253 108q16 7 19 23.5t-9 28.5l-153 154q-8 7 -18 9t-19 -3l-70 -35l-272 272l35 70q5 9 3 19t-9 18l-154 153q-12 12 -28.5 9t-23.5 -19l-108 -253q-4 -9 -2.5 -18.5t8.5 -16.5zM140 494l81 190l105 -104l-46 -91l337 -337
l91 46l104 -105l-190 -81zM512 576v64q109 -3 181 -75t75 -181h-64q-2 82 -56 136t-136 56zM512 768v64q190 -5 316.5 -131.5t131.5 -316.5h-64q-4 163 -112.5 271.5t-271.5 112.5z" />
    <glyph glyph-name="more-outline" unicode="&#xe6cc;" 
d="M176 480q-48 -1 -79.5 -32.5t-32.5 -79.5q1 -48 32.5 -79.5t79.5 -32.5q48 1 79.5 32.5t32.5 79.5q-1 48 -32.5 79.5t-79.5 32.5zM176 416q20 -1 33.5 -14.5t13.5 -33.5t-13.5 -33.5t-33.5 -13.5t-33.5 13.5t-13.5 33.5t13.5 33.5t33.5 14.5zM512 480q48 -1 79.5 -32.5
t32.5 -79.5q-1 -48 -32.5 -79.5t-79.5 -32.5q-48 1 -79.5 32.5t-32.5 79.5q1 48 32.5 79.5t79.5 32.5zM512 416q-20 -1 -33.5 -14.5t-13.5 -33.5t13.5 -33.5t33.5 -13.5t33.5 13.5t13.5 33.5t-13.5 33.5t-33.5 14.5zM848 480q48 -1 79.5 -32.5t32.5 -79.5
q-1 -48 -32.5 -79.5t-79.5 -32.5q-48 1 -79.5 32.5t-32.5 79.5q1 48 32.5 79.5t79.5 32.5zM848 416q-20 -1 -33.5 -14.5t-13.5 -33.5t13.5 -33.5t33.5 -13.5t33.5 13.5t13.5 33.5t-13.5 33.5t-33.5 14.5z" />
    <glyph glyph-name="finished" unicode="&#xe6cd;" 
d="M281 142l410 587q11 15 29.5 13.5t26 -18t-2.5 -32.5l-430 -613q-8 -11 -21 -13.5t-24 5.5l-231 173q-10 8 -12 21t6 24t21 12.5t24 -6.5zM736 448q-14 0 -23 9t-9 23t9 23t23 9h192q14 0 23 -9t9 -23t-9 -23t-23 -9h-192zM608 256q-14 0 -23 9t-9 23t9 23t23 9h320
q14 0 23 -9t9 -23t-9 -23t-23 -9h-320zM480 64q-14 0 -23 9t-9 23t9 23t23 9h448q14 0 23 -9t9 -23t-9 -23t-23 -9h-448z" />
    <glyph glyph-name="view" unicode="&#xe6ce;" 
d="M512 736q242 -22 376 -176t136 -176q-2 -22 -136 -176t-376 -176q-242 22 -376 176t-136 176q2 22 136 176t376 176zM512 672q-170 -11 -283 -114.5t-154 -173.5q41 -70 154 -173.5t283 -114.5q170 11 283 114.5t154 173.5q-41 70 -154 173.5t-283 114.5zM512 608
q95 -2 158.5 -65.5t65.5 -158.5q-2 -95 -65.5 -158.5t-158.5 -65.5q-95 2 -158.5 65.5t-65.5 158.5q2 95 65.5 158.5t158.5 65.5zM512 544q-68 -2 -113 -47t-47 -113q2 -68 47 -113t113 -47q68 2 113 47t47 113q-2 68 -47 113t-113 47z" />
    <glyph glyph-name="loading" unicode="&#xe6cf;" 
d="M512 832q14 0 23 -9t9 -23v-192q0 -14 -9 -23t-23 -9t-23 9t-9 23v192q0 14 9 23t23 9zM512 192q14 0 23 -9t9 -23v-192q0 -14 -9 -23t-23 -9t-23 9t-9 23v192q0 14 9 23t23 9zM960 384q0 -14 -9 -23t-23 -9h-192q-14 0 -23 9t-9 23t9 23t23 9h192q14 0 23 -9t9 -23z
M320 384q0 -14 -9 -23t-23 -9h-192q-14 0 -23 9t-9 23t9 23t23 9h192q14 0 23 -9t9 -23zM195 701q10 9 23 9t22 -9l136 -136q9 -10 9 -22.5t-9.5 -22t-22 -9.5t-22.5 9l-136 136q-9 9 -9 22t9 23zM648 248q10 10 22.5 10t22.5 -10l136 -136q9 -9 9 -22t-9.5 -22.5
t-22.5 -9.5t-22 9l-136 136q-10 10 -10 22.5t10 22.5zM829 701q9 -10 9 -23t-9 -22l-136 -136q-10 -9 -22.5 -9t-22 9.5t-9.5 22t9 22.5l136 136q9 9 22 9t23 -9zM376 248q10 -10 10 -22.5t-10 -22.5l-136 -136q-9 -9 -22 -9t-22.5 9.5t-9.5 22.5t9 22l136 136
q10 10 22.5 10t22.5 -10z" />
    <glyph glyph-name="refresh" unicode="&#xe6d0;" 
d="M772 101q-87 -78 -197.5 -96t-216.5 27q-106 48 -167.5 142t-62.5 210h64q1 -101 55.5 -181t148.5 -117q94 -36 188.5 -14t163.5 96h-93q-14 0 -23 9t-9 22.5t9 22.5t23 10h149q13 -1 22 -10t10 -22v-149q-1 -14 -10 -23t-22.5 -9t-22.5 9t-9 23v50zM276 600h93
q14 0 23 -9t9 -22.5t-9 -22.5t-23 -10h-149q-13 1 -22 10t-10 22v149q1 14 10 23t22.5 9t22.5 -9t9 -23v-50q87 78 197.5 96t217.5 -27q106 -48 167 -142t62 -210h-64q-1 101 -55.5 181t-148.5 117q-94 36 -188.5 14t-163.5 -96z" />
    <glyph glyph-name="rank" unicode="&#xe6d1;" 
d="M186 352l42 -41q12 -14 7.5 -31.5t-22 -22t-30.5 7.5l-96 96q-10 10 -10 23t10 23l96 96q13 12 30.5 7.5t22 -22t-7.5 -31.5l-42 -41h291v294l-41 -42q-13 -13 -31.5 -8.5t-23 22.5t9.5 31l96 96q9 10 22 10t23 -10l96 -96q9 -10 8.5 -22t-10 -21.5t-21.5 -10t-22 8.5
l-42 41v-293h291l-41 41q-10 10 -10 23t9.5 22.5t22.5 9.5t23 -9l96 -96q9 -10 9 -23t-9 -23l-96 -96q-10 -9 -23 -9t-22.5 9.5t-9.5 22.5t10 23l41 41h-291v-293l42 41q13 13 30.5 8t22.5 -22.5t-8 -30.5l-96 -96q-10 -10 -23 -10t-22 10l-96 96q-10 9 -10 22t9.5 22.5
t22.5 9.5t23 -9l41 -42v294h-291z" />
    <glyph glyph-name="sort" unicode="&#xe6d2;" 
d="M384 800q0 14 9 23t23 9t23 -9t9 -23v-787q0 -10 -5.5 -17.5t-14.5 -11.5t-18.5 -2t-16.5 9l-297 297q-9 9 -9 22.5t9 22.5v0q10 10 22.5 10t22.5 -10l243 -243v710zM576 755q0 10 5.5 17.5t14.5 11.5t18.5 2t16.5 -9l297 -297q9 -9 9 -22.5t-9 -22.5v0
q-10 -10 -22.5 -10t-22.5 10l-243 243v-710q0 -14 -9 -23t-23 -9t-23 9t-9 23v787z" />
    <glyph glyph-name="mobile-phone" unicode="&#xe6d3;" 
d="M224 128v-96q1 -27 19 -45t45 -19h448q27 1 45 19t19 45v96h-576zM224 192h576v544q-1 27 -19 45t-45 19h-448q-27 -1 -45 -19t-19 -45v-544zM256 -96q-41 1 -68 28t-28 68v768q1 41 28 68t68 28h512q41 -1 68 -28t28 -68v-768q-1 -41 -28 -68t-68 -28h-512zM560 48
q-1 -20 -14.5 -33.5t-33.5 -13.5t-33.5 13.5t-13.5 33.5t13.5 33.5t33.5 13.5t33.5 -13.5t14.5 -33.5z" />
    <glyph glyph-name="service" unicode="&#xe6d4;" 
d="M864 486q50 -29 75.5 -79t19 -107.5t-42 -101t-90.5 -61.5q-21 -90 -89.5 -144.5t-160.5 -56.5h-96q-14 0 -23 9t-9 23t9 23t23 9h96q62 1 111 35.5t70 92.5h-21q-14 0 -23 9t-9 23v320q0 14 9 23t23 9h32q16 0 31 -2q-14 112 -93.5 184t-193.5 74q-114 -2 -193.5 -74
t-93.5 -184q15 2 31 2h32q14 0 23 -9t9 -23v-320q0 -14 -9 -23t-23 -9h-32q-67 1 -117 39.5t-67.5 103t7 123t81.5 92.5q4 150 103 249.5t249 102.5q150 -3 249 -102.5t103 -249.5zM256 448q-54 -1 -90.5 -37.5t-37.5 -90.5q1 -54 37.5 -90.5t90.5 -37.5v256zM896 320
q-1 54 -37.5 90.5t-90.5 37.5v-256q54 1 90.5 37.5t37.5 90.5z" />
    <glyph glyph-name="sell" unicode="&#xe6d5;" 
d="M704 608h131q13 0 21.5 -8t10.5 -21l19 -195h-64l-16 160h-102v-96q0 -14 -9 -23t-23 -9t-23 9t-9 23v96h-256v-96q0 -14 -9 -23t-23 -9t-23 9t-9 23v96h-102l-51 -512h345v-64h-381q-14 0 -23.5 10.5t-7.5 24.5l57 576q2 13 10.5 21t21.5 8h131v22q2 86 56 143t136 59
q82 -2 136 -59t56 -143v-22zM640 608v22q-1 59 -37.5 98t-90.5 40q-54 -1 -90.5 -40t-37.5 -98v-22h256zM841 124l-73 74v-230q0 -14 -9 -23t-23 -9t-23 9t-9 23v230l-73 -74q-14 -13 -31.5 -8t-22 22.5t7.5 30.5l128 128q10 10 23 10t23 -10l128 -128q12 -13 7.5 -30.5
t-22 -22.5t-31.5 8z" />
    <glyph glyph-name="sold-out" unicode="&#xe6d6;" 
d="M704 608h131q13 0 21.5 -8t10.5 -21l19 -195h-64l-16 160h-102v-96q0 -14 -9 -23t-23 -9t-23 9t-9 23v96h-256v-96q0 -14 -9 -23t-23 -9t-23 9t-9 23v96h-102l-51 -512h345v-64h-381q-14 0 -23.5 10.5t-7.5 24.5l57 576q2 13 10.5 21t21.5 8h131v22q2 86 56 143t136 59
q82 -2 136 -59t56 -143v-22zM640 608v22q-1 59 -37.5 98t-90.5 40q-54 -1 -90.5 -40t-37.5 -98v-22h256zM841 132q14 13 32 8.5t22.5 -22.5t-8.5 -31l-128 -128q-10 -10 -23 -10t-23 10l-128 128q-12 13 -7.5 30.5t22 22.5t31.5 -8l73 -74v230q0 14 9 23t23 9t23 -9t9 -23
v-230z" />
    <glyph glyph-name="delete" unicode="&#xe6d7;" 
d="M160 640h-64q-14 0 -23 9t-9 23t9 23t23 9h256v96q0 14 9 23t23 9h256q14 0 23 -9t9 -23v-96h256q14 0 23 -9t9 -23t-9 -23t-23 -9h-64v-672q0 -14 -9 -23t-23 -9h-640q-14 0 -23 9t-9 23v672zM608 704v64h-192v-64h192zM224 0h576v640h-576v-640zM416 128q-14 0 -23 9
t-9 23v320q0 14 9 23t23 9t23 -9t9 -23v-320q0 -14 -9 -23t-23 -9zM608 128q-14 0 -23 9t-9 23v320q0 14 9 23t23 9t23 -9t9 -23v-320q0 -14 -9 -23t-23 -9z" />
    <glyph glyph-name="minus" unicode="&#xe6d8;" 
d="M128 352h768q14 0 23 9t9 23t-9 23t-23 9h-768q-14 0 -23 -9t-9 -23t9 -23t23 -9z" />
    <glyph glyph-name="plus" unicode="&#xe6d9;" 
d="M480 416v352q0 14 9 23t23 9t23 -9t9 -23v-352h352q14 0 23 -9t9 -23t-9 -23t-23 -9h-352v-352q0 -14 -9 -23t-23 -9t-23 9t-9 23v352h-352q-14 0 -23 9t-9 23t9 23t23 9h352z" />
    <glyph glyph-name="check" unicode="&#xe6da;" 
d="M407 189l-211 211q-13 13 -31 8t-22.5 -22.5t8.5 -31.5l256 -256l512 512q9 10 8.5 23t-10 22.5t-22 9.5t-22.5 -9z" />
    <glyph glyph-name="close" unicode="&#xe6db;" 
d="M764 681l-252 -252l-252 252q-10 9 -22.5 9t-22 -9.5t-9.5 -22t9 -22.5l252 -252l-252 -252q-13 -13 -8.5 -31t22 -22.5t31.5 8.5l252 252l252 -252q10 -9 22.5 -9t22 9.5t9.5 22t-9 22.5l-252 252l252 252q13 13 8.5 31t-22.5 22.5t-31 -8.5z" />
    <glyph glyph-name="d-arrow-right" unicode="&#xe6dc;" 
d="M453 747q9 8 21 8t21 -8l331 -341q9 -9 9 -22t-9 -22l-331 -341q-9 -8 -21 -8t-21 9t-9 21t9 21l312 320l-312 320q-9 9 -9 21t9 22zM197 747q9 8 21 8t21 -8l331 -341q9 -9 9 -22t-9 -22l-331 -341q-9 -8 -21 -8t-21 9t-9 21t9 21l312 320l-312 320q-9 9 -9 21t9 22z
" />
    <glyph glyph-name="d-arrow-left" unicode="&#xe6dd;" 
d="M529 747q9 8 21 8t21 -9t9 -21t-9 -21l-312 -320l312 -320q9 -9 9 -21.5t-9 -21t-21 -8.5t-21 8l-331 341q-9 10 -9 22.5t9 21.5zM785 747q9 8 21 8t21 -9t9 -21t-9 -21l-312 -320l312 -320q9 -9 9 -21.5t-9 -21t-21 -8.5t-21 8l-331 341q-9 10 -9 22.5t9 21.5z" />
    <glyph glyph-name="arrow-left" unicode="&#xe6de;" 
d="M609 747l-331 -341q-9 -9 -9 -21.5t9 -22.5l331 -341q9 -8 21 -8t21 9t9 21t-9 21l-312 320l312 320q9 9 9 21t-9 21t-21 9t-21 -8z" />
    <glyph glyph-name="arrow-down" unicode="&#xe6df;" 
d="M832 555l-320 -312l-320 312q-9 9 -21 9t-21 -9t-9 -21t8 -20l341 -332q9 -9 22 -9t22 9l341 331q8 9 8 21.5t-9 21t-21 8.5t-21 -9z" />
    <glyph glyph-name="arrow-right" unicode="&#xe6e0;" 
d="M341 747q-9 -10 -9 -22t9 -21l312 -320l-312 -320q-9 -9 -9 -21t9 -21t21 -9t21 8l331 341q9 9 9 22t-9 22l-331 341q-9 8 -21 8t-21 -8z" />
    <glyph glyph-name="arrow-up" unicode="&#xe6e1;" 
d="M489 552l-340 -357q-9 -10 -9 -22t9 -22v-1q9 -9 21.5 -9t21.5 9l320 336l320 -336q9 -9 21.5 -9t21.5 9v1q9 10 9 22t-9 22l-340 357q-9 9 -23 9t-23 -9z" />
    <glyph glyph-name="key" unicode="&#xe6e2;" 
d="M448 440v360q0 13 9.5 22.5t22.5 9.5h192q14 0 23 -9t9 -23t-9 -23t-23 -9h-160v-128h160q14 0 23 -9t9 -23t-9 -23t-23 -9h-160v-128q104 -2 175 -69.5t80 -170.5q4 -104 -58.5 -179.5t-164.5 -90.5q-104 -11 -183 46.5t-101 159.5q-17 102 35.5 185t152.5 111zM512 0
q82 2 136 56t56 136q-2 82 -56 136t-136 56q-82 -2 -136 -56t-56 -136q2 -82 56 -136t136 -56z" />
    <glyph glyph-name="user" unicode="&#xe6e3;" 
d="M512 384q82 2 136 56t56 136q-2 82 -56 136t-136 56q-82 -2 -136 -56t-56 -136q2 -82 56 -136t136 -56zM512 320q-109 3 -181 75t-75 181q3 109 75 181t181 75q109 -3 181 -75t75 -181q-3 -109 -75 -181t-181 -75zM832 0v96q-1 41 -28 68t-68 28h-448q-41 -1 -68 -28
t-28 -68v-96q0 -14 -9 -23t-23 -9t-23 9t-9 23v96q2 68 47 113t113 47h448q68 -2 113 -47t47 -113v-96q0 -14 -9 -23t-23 -9t-23 9t-9 23z" />
    <glyph glyph-name="unlock" unicode="&#xe6e4;" 
d="M224 448q-14 0 -23 -9t-9 -23v-384q0 -14 9 -23t23 -9h576q14 0 23 9t9 23v384q0 14 -9 23t-23 9h-576zM224 512h576q41 -1 68 -28t28 -68v-384q-1 -41 -28 -68t-68 -28h-576q-41 1 -68 28t-28 68v384q1 41 28 68t68 28zM512 352q14 0 23 -9t9 -23v-192q0 -14 -9 -23
t-23 -9t-23 9t-9 23v192q0 14 9 23t23 9zM690 647q-27 65 -86 97t-128 20q-69 -14 -112 -65.5t-44 -122.5v-64h352l96 -38v-26h-512v128q2 94 58.5 163t149.5 89q92 16 170.5 -27t115.5 -130z" />
    <glyph glyph-name="lock" unicode="&#xe6e5;" 
d="M224 448q-14 0 -23 -9t-9 -23v-384q0 -14 9 -23t23 -9h576q14 0 23 9t9 23v384q0 14 -9 23t-23 9h-576zM224 512h576q41 -1 68 -28t28 -68v-384q-1 -41 -28 -68t-68 -28h-576q-41 1 -68 28t-28 68v384q1 41 28 68t68 28zM512 352q14 0 23 -9t9 -23v-192q0 -14 -9 -23
t-23 -9t-23 9t-9 23v192q0 14 9 23t23 9zM704 512v64q-2 82 -56 136t-136 56q-82 -2 -136 -56t-56 -136v-64h384zM512 832q109 -3 181 -75t75 -181v-128h-512v128q3 109 75 181t181 75z" />
    <glyph glyph-name="top" unicode="&#xe6e6;" 
d="M572 691v-601q0 -12 -8.5 -20.5t-21.5 -8.5t-21.5 8.5t-8.5 20.5v601l-220 -234q-8 -9 -21 -9t-21.5 9.5t-8.5 22.5t9 23l271 288q8 9 21 9t21 -9l271 -288q9 -10 9 -23t-8.5 -22.5t-21 -9.5t-21.5 9z" />
    <glyph glyph-name="top-right" unicode="&#xe6e7;" 
d="M768 640h-414q-14 0 -23 9t-9 23t9 23t23 9h446q14 0 23 -9t9 -23v-448q0 -14 -9 -23t-23 -9t-23 9t-9 23v416zM777 695q10 9 23 9t22.5 -9.5t9.5 -22.5t-9 -23l-544 -544q-10 -9 -23 -9t-22.5 9.5t-9.5 22.5t9 23z" />
    <glyph glyph-name="top-left" unicode="&#xe6e8;" 
d="M256 640h416q14 0 23 9t9 23t-9 23t-23 9h-448q-14 0 -23 -9t-9 -23v-448q0 -14 9 -23t23 -9t23 9t9 23v416zM247 695q-10 9 -23 9t-22.5 -9.5t-9.5 -22.5t9 -23l544 -544q10 -9 23 -9t22.5 9.5t9.5 22.5t-9 23z" />
    <glyph glyph-name="right" unicode="&#xe6e9;" 
d="M755 416h-595q-14 0 -23 -9t-9 -23t9 -23t23 -9h595l-234 -233q-9 -10 -9 -23t9.5 -22.5t22.5 -9.5t23 9l288 288q9 10 9 23t-9 23l-288 288q-10 9 -23 9t-22.5 -9.5t-9.5 -22.5t9 -23z" />
    <glyph glyph-name="back" unicode="&#xe6ea;" 
d="M224 416h640q14 0 23 -9t9 -23t-9 -23t-23 -9h-640q-14 0 -23 9t-9 23t9 23t23 9zM237 384l266 -265q9 -10 9 -23t-9.5 -22.5t-22.5 -9.5t-23 9l-288 288q-9 10 -9 23t9 23l288 288q10 9 23 9t22.5 -9.5t9.5 -22.5t-9 -23z" />
    <glyph glyph-name="bottom" unicode="&#xe6eb;" 
d="M544 90v638q0 14 -9 23t-23 9t-23 -9t-9 -23v-638l-233 248q-10 10 -23 10t-22.5 -10.5t-9.5 -23.5t9 -24l288 -306q10 -10 23 -10t23 10l288 306q9 11 9 24t-9.5 23.5t-22.5 10.5t-23 -10z" />
    <glyph glyph-name="bottom-right" unicode="&#xe6ec;" 
d="M352 128q-14 0 -23 -9t-9 -23t9 -23t23 -9h448q14 0 23 9t9 23v448q0 14 -9 23t-23 9t-23 -9t-9 -23v-416h-416zM777 73q10 -9 23 -9t22.5 9.5t9.5 22.5t-9 23l-544 544q-10 9 -23 9t-22.5 -9.5t-9.5 -22.5t9 -23z" />
    <glyph glyph-name="bottom-left" unicode="&#xe6ed;" 
d="M256 128h416q14 0 23 -9t9 -23t-9 -23t-23 -9h-448q-14 0 -23 9t-9 23v448q0 14 9 23t23 9t23 -9t9 -23v-416zM247 73q-10 -9 -23 -9t-22.5 9.5t-9.5 22.5t9 23l544 544q10 9 23 9t22.5 -9.5t9.5 -22.5t-9 -23z" />
    <glyph glyph-name="moon-night" unicode="&#xe6ee;" 
d="M384 384q1 119 57.5 220t158.5 163q-98 6 -184.5 -34t-145.5 -118t-73.5 -172t17.5 -187h189q-19 63 -19 128zM171 192q-63 138 -34.5 280t139.5 245q113 100 257.5 113.5t274.5 -63.5q-101 -7 -183.5 -60t-130.5 -142t-46.5 -187t51.5 -186h-328zM0 256zM32 256h960
q32 0 32 -32v0q0 -32 -32 -32h-960q-32 0 -32 32v0q0 32 32 32zM160 128h384q14 0 23 -9t9 -23t-9 -23t-23 -9h-384q-14 0 -23 9t-9 23t9 23t23 9zM320 0h224q14 0 23 -9t9 -23v0q0 -14 -9 -23t-23 -9h-224q-14 1 -23 10t-9 22v0q0 14 9 23t23 9z" />
    <glyph glyph-name="moon" unicode="&#xe6f0;" 
d="M240 656q-74 -77 -99.5 -176.5t4 -202t105 -173t179 -94t202 8.5t169.5 111q-116 -28 -227.5 3t-196 115.5t-115.5 196t-3 227.5zM422 294q112 -108 259 -112.5t266 95.5q-43 -163 -173 -256.5t-298 -82.5q-168 16 -281 129t-129 281q-11 168 82.5 298t256.5 173
q-100 -119 -95.5 -266t112.5 -259z" />
    <glyph glyph-name="cloudy-and-sunny" unicode="&#xe6f1;" 
d="M598 0h-270q-106 -1 -180 66t-84 173q-4 106 60 182t170 90q62 118 179.5 166.5t245.5 8.5q126 -45 191 -154t45 -241q-26 -131 -124.5 -211.5t-232.5 -79.5zM327 64h272q110 -1 190.5 64.5t101.5 173.5q18 108 -35.5 197.5t-156.5 125.5q-105 33 -201 -6.5t-147 -136.5
l-16 -31l-35 -4q-79 -10 -127 -67.5t-45 -136.5q8 -80 63.5 -130t135.5 -49zM140 394q-56 57 -71 131.5t15.5 148t94 115.5t143 41.5t142.5 -43t94 -116.5q-27 -3 -62 -19q-24 55 -72.5 86t-108 29.5t-106 -34.5t-68 -89t-8.5 -111.5t56 -96.5z" />
    <glyph glyph-name="partly-cloudy" unicode="&#xe6f2;" 
d="M598 64h-270q-106 -1 -180 66t-84 173q-4 106 60 182t170 90q62 118 179.5 166.5t245.5 8.5q126 -45 191 -154t45 -241q-26 -131 -124.5 -211.5t-232.5 -79.5zM327 128h272q110 -1 190.5 64.5t101.5 173.5q18 108 -35.5 197.5t-156.5 125.5q-105 33 -201 -6.5
t-147 -136.5l-16 -31l-35 -4q-79 -10 -127 -67.5t-45 -136.5q8 -80 63.5 -130t135.5 -49z" />
    <glyph glyph-name="cloudy" unicode="&#xe6f3;" 
d="M737 538l-33 8l-12 32q-23 61 -75 95t-117 30t-112.5 -44.5t-62.5 -103.5l-9 -39l-39 -9q-73 -18 -113.5 -76t-34.5 -133q10 -74 63 -121t128 -49h368q42 0 79.5 16t67 45.5t45.5 67t16 79.5q-1 73 -44.5 128t-114.5 74zM752 600q93 -24 149.5 -96t58.5 -168
q-3 -115 -79.5 -192t-192.5 -80h-368q-100 2 -170.5 65t-84.5 162q-9 100 45.5 177t151.5 102q21 84 84.5 137.5t149.5 59.5q87 5 156 -40.5t100 -126.5z" />
    <glyph glyph-name="sunny" unicode="&#xe6f6;" 
d="M512 192q82 2 136 56t56 136q-2 82 -56 136t-136 56q-82 -2 -136 -56t-56 -136q2 -82 56 -136t136 -56zM512 128q-109 3 -181 75t-75 181q3 109 75 181t181 75q109 -3 181 -75t75 -181q-3 -109 -75 -181t-181 -75zM512 832q14 0 23 -9t9 -23v-64q0 -14 -9 -23t-23 -9
t-23 9t-9 23v64q0 14 9 23t23 9zM512 64q14 0 23 -9t9 -23v-64q0 -14 -9 -23t-23 -9t-23 9t-9 23v64q0 14 9 23t23 9zM195 701q10 9 23 9t22 -9l46 -45q12 -14 7.5 -31.5t-22 -22t-31.5 7.5l-45 46q-9 9 -9 22t9 23zM738 158q10 9 23 9t23 -9l45 -46q9 -9 9 -22t-9.5 -22.5
t-22.5 -9.5t-22 9l-46 45q-9 10 -9 23t9 23zM64 384q0 14 9 23t23 9h64q14 0 23 -9t9 -23t-9 -23t-23 -9h-64q-14 0 -23 9t-9 23zM832 384q0 14 9 23t23 9h64q14 0 23 -9t9 -23t-9 -23t-23 -9h-64q-14 0 -23 9t-9 23zM195 67q-9 10 -9 23t9 22l45 46q10 9 23 9t22.5 -9.5
t9.5 -22.5t-9 -23l-46 -45q-9 -9 -22 -9t-23 9zM738 610q-9 10 -9 23t9 23l46 45q9 9 22 9t22.5 -9.5t9.5 -22.5t-9 -22l-45 -46q-10 -9 -23 -9t-23 9z" />
    <glyph glyph-name="sunset" unicode="&#xe6f7;" 
d="M83 256q-40 141 5.5 273.5t163.5 218.5q120 84 260 84t260 -84q118 -86 163.5 -218.5t5.5 -273.5h-67q41 122 5 240t-139 196q-104 76 -227.5 76t-228.5 -76q-103 -78 -139 -196t5 -240h-67zM0 192zM32 192h960q32 0 32 -32v0q0 -32 -32 -32h-960q-32 0 -32 32v0
q0 32 32 32zM256 64zM288 64h448q32 0 32 -32v0q0 -32 -32 -32h-448q-32 0 -32 32v0q0 32 32 32z" />
    <glyph glyph-name="sunrise-1" unicode="&#xe6f8;" 
d="M32 192h960q14 0 23 -9t9 -23t-9 -23t-23 -9h-960q-14 0 -23 9t-9 23t9 23t23 9zM256 64zM288 64h448q32 0 32 -32v0q0 -32 -32 -32h-448q-32 0 -32 32v0q0 32 32 32zM160 256q4 150 103 249t249 103q150 -4 249 -103t103 -249h-64q-3 122 -84.5 203.5t-203.5 84.5
q-122 -3 -203.5 -84.5t-84.5 -203.5h-64zM512 832q14 0 23 -9t9 -23v-96q0 -14 -9 -23t-23 -9t-23 9t-9 23v96q0 14 9 23t23 9zM919 663q10 -10 10 -22.5t-10 -22.5l-68 -68q-13 -13 -30.5 -8t-22.5 22.5t8 30.5l68 68q10 10 22.5 10t22.5 -10zM105 663q10 10 22.5 10
t22.5 -10l68 -68q13 -13 8 -30.5t-22.5 -22.5t-30.5 8l-68 68q-10 10 -10 22.5t10 22.5z" />
    <glyph glyph-name="sunrise" unicode="&#xe6f9;" 
d="M32 128h960q14 0 23 -9t9 -23t-9 -23t-23 -9h-960q-14 0 -23 9t-9 23t9 23t23 9zM161 224q16 139 113.5 228.5t237.5 92.5q140 -3 237.5 -92.5t113.5 -228.5h-65q-14 112 -93.5 183t-192.5 73q-113 -2 -192.5 -73t-93.5 -183h-65zM512 768q14 0 23 -9t9 -23v-96
q0 -14 -9 -23t-23 -9t-23 9t-9 23v96q0 14 9 23t23 9zM919 599q10 -10 10 -22.5t-10 -22.5l-68 -68q-13 -13 -30.5 -8t-22.5 22.5t8 30.5l68 68q10 10 22.5 10t22.5 -10zM105 599q10 10 22.5 10t22.5 -10l68 -68q13 -13 8 -30.5t-22.5 -22.5t-30.5 8l-68 68q-10 10 -10 22.5
t10 22.5z" />
    <glyph glyph-name="heavy-rain" unicode="&#xe6fa;" 
d="M739 605l-35 6l-13 34q-24 59 -75.5 92.5t-115.5 29.5t-111.5 -43.5t-63.5 -102.5l-10 -40l-41 -7q-65 -13 -105 -60.5t-41 -113.5q2 -75 51.5 -124.5t124.5 -51.5h400q76 2 129 50t62 124q5 76 -38 133.5t-118 73.5zM960 416q-3 -109 -75.5 -181t-180.5 -75h-400
q-49 0 -92.5 18t-77.5 52t-52 78t-18 92q1 90 56 155t143 82q22 82 84.5 135t148.5 59q85 5 154 -39.5t101 -123.5q92 -20 149.5 -89t59.5 -163zM224 96q14 0 23 -9t9 -23v-96q0 -14 -9 -23t-23 -9t-23 9t-9 23v96q0 14 9 23t23 9zM416 96q14 0 23 -9t9 -23v-96
q0 -14 -9 -23t-23 -9t-23 9t-9 23v96q0 14 9 23t23 9zM608 96q14 0 23 -9t9 -23v-96q0 -14 -9 -23t-23 -9t-23 9t-9 23v96q0 14 9 23t23 9zM800 96q14 0 23 -9t9 -23v-96q0 -14 -9 -23t-23 -9t-23 9t-9 23v96q0 14 9 23t23 9z" />
    <glyph glyph-name="lightning" unicode="&#xe6fb;" 
d="M288 225v-64q-97 8 -159.5 75t-64.5 164q1 90 56 155t143 82q22 82 84.5 135t148.5 59q85 5 154 -39.5t101 -123.5q95 -20 152.5 -91.5t55.5 -168.5q-4 -96 -65.5 -164t-157.5 -82v65q70 13 114 64.5t46 122.5q-1 72 -44 124t-113 67l-35 6l-13 34q-24 59 -75.5 92.5
t-115.5 29.5t-111.5 -43.5t-63.5 -102.5l-10 -40l-41 -7q-65 -13 -105 -60.5t-41 -113.5q1 -71 46 -119.5t114 -55.5zM416 160q-18 1 -27 16.5t-1 31.5l128 224q10 16 28 16t27.5 -16t0.5 -32l-101 -176h137q18 -1 27 -16.5t1 -31.5l-128 -224q-7 -12 -19.5 -15t-24.5 3.5
t-15 19t3 24.5l101 176h-137z" />
    <glyph glyph-name="light-rain" unicode="&#xe6fc;" 
d="M739 605l-35 6l-13 34q-24 59 -75.5 92.5t-115.5 29.5t-111.5 -43.5t-63.5 -102.5l-10 -40l-41 -7q-65 -13 -105 -60.5t-41 -113.5q2 -75 51.5 -124.5t124.5 -51.5h400q76 2 129 50t62 124q5 76 -38 133.5t-118 73.5zM960 416q-3 -109 -75.5 -181t-180.5 -75h-400
q-49 0 -92.5 18t-77.5 52t-52 78t-18 92q1 90 56 155t143 82q22 82 84.5 135t148.5 59q85 5 154 -39.5t101 -123.5q92 -20 149.5 -89t59.5 -163zM288 96h64v-64h-64v64zM480 96h64v-64h-64v64zM384 0h64v-64h-64v64zM576 0h64v-64h-64v64zM672 96h64v-64h-64v64z" />
    <glyph glyph-name="wind-power" unicode="&#xe6fd;" 
d="M128 832zM160 832v0q32 0 32 -32v-832q0 -32 -32 -32v0q-32 0 -32 32v832q0 32 32 32zM576 477l128 12v238l-128 12v-262zM512 472v272l-192 18v-26h-64v96l617 -56q38 -4 62 -31t25 -65v-144q-1 -38 -25 -65t-62 -31l-617 -56v288h64v-218zM768 495l99 9q13 1 21 10
t8 22v144q0 13 -8 22t-21 10l-99 9v-226z" />
    <glyph glyph-name="watch" unicode="&#xe6fe;" 
d="M512 128q109 3 181 75t75 181q-3 109 -75 181t-181 75q-109 -3 -181 -75t-75 -181q3 -109 75 -181t181 -75zM512 64q-136 3 -226.5 93.5t-93.5 226.5q3 136 93.5 226.5t226.5 93.5q136 -3 226.5 -93.5t93.5 -226.5q-3 -136 -93.5 -226.5t-226.5 -93.5zM480 544
q14 0 23 -9t9 -23v-160q0 -14 -9 -23t-23 -9t-23 9t-9 23v160q0 14 9 23t23 9zM448 384zM480 384h128q32 0 32 -32v0q0 -32 -32 -32h-128q-32 0 -32 32v0q0 32 32 32zM608 640v128h-192v-128h-64v192h320v-192h-64zM416 128v-128h192v128h64v-192h-320v192h64z" />
    <glyph glyph-name="watch-1" unicode="&#xe6ff;" 
d="M512 128q109 3 181 75t75 181q-3 109 -75 181t-181 75q-109 -3 -181 -75t-75 -181q3 -109 75 -181t181 -75zM512 64q-136 3 -226.5 93.5t-93.5 226.5q3 136 93.5 226.5t226.5 93.5q136 -3 226.5 -93.5t93.5 -226.5q-3 -136 -93.5 -226.5t-226.5 -93.5zM608 640v128h-192
v-128h-64v192h320v-192h-64zM416 128v-128h192v128h64v-192h-320v192h64zM512 512q-14 0 -23 9t-9 23t9 23t23 9t23 -9t9 -23t-9 -23t-23 -9zM512 192q-14 0 -23 9t-9 23t9 23t23 9t23 -9t9 -23t-9 -23t-23 -9zM384 384q0 -14 -9 -23t-23 -9t-23 9t-9 23t9 23t23 9t23 -9
t9 -23zM704 384q0 -14 -9 -23t-23 -9t-23 9t-9 23t9 23t23 9t23 -9t9 -23zM422 474q-14 -12 -31.5 -7.5t-22.5 22.5t8 31q10 9 22.5 9t22 -9.5t10 -22.5t-8.5 -23zM648 248q-13 -13 -31 -8t-22.5 22.5t7.5 31.5q10 9 23 8.5t22.5 -10t9.5 -22t-9 -22.5zM422 294
q12 -14 7.5 -31.5t-22.5 -22.5t-31 8q-9 10 -9 22.5t9.5 22t22.5 10t23 -8.5zM648 520q12 -14 7.5 -31.5t-22 -22t-31.5 7.5q-9 10 -8.5 23t10 22.5t22 9.5t22.5 -9z" />
    <glyph glyph-name="timer" unicode="&#xe702;" 
d="M512 0q136 3 226.5 93.5t93.5 226.5q-3 136 -93.5 226.5t-226.5 93.5q-136 -3 -226.5 -93.5t-93.5 -226.5q3 -136 93.5 -226.5t226.5 -93.5zM512 -64q-163 4 -271.5 112.5t-112.5 271.5q4 163 112.5 271.5t271.5 112.5q163 -4 271.5 -112.5t112.5 -271.5
q-4 -163 -112.5 -271.5t-271.5 -112.5zM512 576q14 0 23 -9t9 -23l-1 -224q0 -14 -9 -23t-22.5 -9t-22.5 9t-10 23l1 224q0 14 9 23t23 9zM512 320zM448 320q1 -27 19 -45t45 -18t45 18t18 45t-18 45t-45 18t-45 -18t-19 -45zM544 768v-128h-64v128h-96q-14 0 -23 9t-9 23
t9 23t23 9h256q14 0 23 -9t9 -23t-9 -23t-23 -9h-96z" />
    <glyph glyph-name="alarm-clock" unicode="&#xe703;" 
d="M512 64q136 3 226.5 93.5t93.5 226.5q-3 136 -93.5 226.5t-226.5 93.5q-136 -3 -226.5 -93.5t-93.5 -226.5q3 -136 93.5 -226.5t226.5 -93.5zM512 0q-163 4 -271.5 112.5t-112.5 271.5q4 163 112.5 271.5t271.5 112.5q163 -4 271.5 -112.5t112.5 -271.5
q-4 -163 -112.5 -271.5t-271.5 -112.5zM292 71l56 -32l-48 -83q-10 -15 -28 -15t-27 15.5t-1 31.5zM732 71l-56 -32l48 -83q10 -15 28 -15t27 15.5t1 31.5zM512 384h160q14 0 23 -9t9 -23t-9 -23t-23 -9h-192q-14 0 -23 9t-9 23v224q0 14 9 23t23 9t23 -9t9 -23v-192z
M90 584q-31 49 -25.5 104t47 96.5t96.5 47t104 -25.5l-47 -47q-28 13 -57.5 8t-51 -27t-27 -51.5t7.5 -57.5l-46 -47h-1zM926 584q31 49 25.5 104t-46.5 96.5t-96.5 47t-104.5 -25.5l47 -47q28 13 57.5 8t51.5 -27t27 -51.5t-8 -57.5z" />
    <glyph glyph-name="map-location" unicode="&#xe704;" 
d="M800 480q-3 122 -84.5 203.5t-203.5 84.5q-122 -3 -203.5 -84.5t-84.5 -203.5q0 -89 71.5 -203.5t216.5 -253.5q145 139 216.5 253.5t71.5 203.5zM512 -64q-352 320 -352 544q4 150 103 249t249 103q150 -4 249 -103t103 -249q0 -224 -352 -544zM512 448q27 1 45 19
t18 45t-18 45t-45 18t-45 -18t-18 -45t18 -45t45 -19zM512 384q-54 1 -90.5 37.5t-37.5 90.5q1 54 37.5 90.5t90.5 37.5q54 -1 90.5 -37.5t37.5 -90.5q-1 -54 -37.5 -90.5t-90.5 -37.5zM858 192l102 -256h-288v64h-320v-64h-288l102 256h692zM789 192h-554l-76 -192h706z
" />
    <glyph glyph-name="delete-location" unicode="&#xe705;" 
d="M256 0zM288 0h448q32 0 32 -32v0q0 -32 -32 -32h-448q-32 0 -32 32v0q0 32 32 32zM800 480q-3 122 -84.5 203.5t-203.5 84.5q-122 -3 -203.5 -84.5t-84.5 -203.5q0 -89 71.5 -203.5t216.5 -253.5q145 139 216.5 253.5t71.5 203.5zM512 -64q-352 320 -352 544
q4 150 103 249t249 103q150 -4 249 -103t103 -249q0 -224 -352 -544zM352 512zM384 512h256q32 0 32 -32v0q0 -32 -32 -32h-256q-32 0 -32 32v0q0 32 32 32z" />
    <glyph glyph-name="add-location" unicode="&#xe706;" 
d="M256 0zM288 0h448q32 0 32 -32v0q0 -32 -32 -32h-448q-32 0 -32 32v0q0 32 32 32zM800 480q-3 122 -84.5 203.5t-203.5 84.5q-122 -3 -203.5 -84.5t-84.5 -203.5q0 -89 71.5 -203.5t216.5 -253.5q145 139 216.5 253.5t71.5 203.5zM512 -64q-352 320 -352 544
q4 150 103 249t249 103q150 -4 249 -103t103 -249q0 -224 -352 -544zM544 512h96q14 0 23 -9t9 -23t-9 -23t-23 -9h-96v-96q0 -14 -9 -23t-23 -9t-23 9t-9 23v96h-96q-14 0 -23 9t-9 23t9 23t23 9h96v96q0 14 9 23t23 9t23 -9t9 -23v-96z" />
    <glyph glyph-name="location-information" unicode="&#xe707;" 
d="M256 0zM288 0h448q32 0 32 -32v0q0 -32 -32 -32h-448q-32 0 -32 32v0q0 32 32 32zM800 480q-3 122 -84.5 203.5t-203.5 84.5q-122 -3 -203.5 -84.5t-84.5 -203.5q0 -89 71.5 -203.5t216.5 -253.5q145 139 216.5 253.5t71.5 203.5zM512 -64q-352 320 -352 544
q4 150 103 249t249 103q150 -4 249 -103t103 -249q0 -224 -352 -544zM512 384q41 1 68 28t27 68t-27 68t-68 27t-68 -27t-27 -68t27 -68t68 -28zM512 320q-68 2 -113 47t-47 113q2 68 47 113t113 47q68 -2 113 -47t47 -113q-2 -68 -47 -113t-113 -47z" />
    <glyph glyph-name="location-outline" unicode="&#xe708;" 
d="M800 480q-3 122 -84.5 203.5t-203.5 84.5q-122 -3 -203.5 -84.5t-84.5 -203.5q0 -89 71.5 -203.5t216.5 -253.5q145 139 216.5 253.5t71.5 203.5zM512 -64q-352 320 -352 544q4 150 103 249t249 103q150 -4 249 -103t103 -249q0 -224 -352 -544zM512 384q41 1 68 28
t27 68t-27 68t-68 27t-68 -27t-27 -68t27 -68t68 -28zM512 320q-68 2 -113 47t-47 113q2 68 47 113t113 47q68 -2 113 -47t47 -113q-2 -68 -47 -113t-113 -47z" />
    <glyph glyph-name="place" unicode="&#xe709;" 
d="M512 384q82 2 136 56t56 136q-2 82 -56 136t-136 56q-82 -2 -136 -56t-56 -136q2 -82 56 -136t136 -56zM512 320q-109 3 -181 75t-75 181q3 109 75 181t181 75q109 -3 181 -75t75 -181q-3 -109 -75 -181t-181 -75zM512 384q14 0 23 -9t9 -23v-256q0 -14 -9 -23t-23 -9
t-23 9t-9 23v256q0 14 9 23t23 9zM384 247v-65q-87 -15 -139 -39.5t-53 -46.5q3 -31 92.5 -62.5t227.5 -33.5q138 2 227.5 33.5t92.5 62.5q-1 22 -53 46.5t-139 39.5v65q114 -17 184 -57.5t72 -93.5q-4 -68 -112.5 -113t-271.5 -47q-163 2 -271.5 47t-112.5 113
q2 53 72 93.5t184 57.5z" />
    <glyph glyph-name="discover" unicode="&#xe70a;" 
d="M512 0q163 4 271.5 112.5t112.5 271.5q-4 163 -112.5 271.5t-271.5 112.5q-163 -4 -271.5 -112.5t-112.5 -271.5q4 -163 112.5 -271.5t271.5 -112.5zM512 -64q-190 5 -316.5 131.5t-131.5 316.5q5 190 131.5 316.5t316.5 131.5q190 -5 316.5 -131.5t131.5 -316.5
q-5 -190 -131.5 -316.5t-316.5 -131.5zM726 581q-74 -171 -157.5 -254t-253.5 -157q-8 -3 -14 3t-3 14q74 170 157 253t254 158q8 3 14 -3t3 -14z" />
    <glyph glyph-name="first-aid-kit" unicode="&#xe70b;" 
d="M192 640q-27 -1 -45 -19t-19 -45v-448q1 -27 19 -45t45 -19h640q27 1 45 19t19 45v448q-1 27 -19 45t-45 19h-640zM192 704h640q54 -1 90.5 -37.5t37.5 -90.5v-448q-1 -54 -37.5 -90.5t-90.5 -37.5h-640q-54 1 -90.5 37.5t-37.5 90.5v448q1 54 37.5 90.5t90.5 37.5z
M544 384h96q14 0 23 -9t9 -23t-9 -23t-23 -9h-96v-96q0 -14 -9 -23t-23 -9t-23 9t-9 23v96h-96q-14 0 -23 9t-9 23t9 23t23 9h96v96q0 14 9 23t23 9t23 -9t9 -23v-96zM352 768v-64h320v64h-320zM320 832h384q14 0 23 -9t9 -23v-128q0 -14 -9 -23t-23 -9h-384q-14 0 -23 9
t-9 23v128q0 14 9 23t23 9z" />
    <glyph glyph-name="trophy-1" unicode="&#xe70c;" 
d="M320 768v-256q2 -82 56 -136t136 -56q82 2 136 56t56 136v256h-384zM288 832h448q14 0 23 -9t9 -23v-288q-3 -109 -75 -181t-181 -75q-109 3 -181 75t-75 181v288q0 14 9 23t23 9zM769 640h93q-9 -114 -43 -147q-22 -22 -50 -34v181zM896 704h-191v-320q95 0 160 64
q58 58 63 223q0 13 -9.5 23t-22.5 10zM256 640h-94q10 -114 43 -147q23 -22 51 -34v181zM129 704h191v-320q-96 0 -160 64q-58 58 -63 223q-1 13 8.5 23t23.5 10zM480 320h64v-192h-64v192zM256 0h512q14 0 23 -9t9 -23t-9 -23t-23 -9h-512q-14 0 -23 9t-9 23t9 23t23 9z
M384 128h256q14 0 23 -9t9 -23t-9 -23t-23 -9h-256q-14 0 -23 9t-9 23t9 23t23 9z" />
    <glyph glyph-name="trophy" unicode="&#xe70d;" 
d="M480 0v194q-79 11 -137 62t-79 128h-33q-32 0 -57 18.5t-35 49.5l-45 153q-6 18 -2.5 35.5t14.5 32.5t27 23t34 8h89v96q0 14 9 23t23 9h448q14 0 23 -9t9 -23v-96h89q18 0 34 -8t27 -23t14.5 -32.5t-2.5 -35.5l-46 -153q-9 -30 -34 -49t-57 -19h-33q-21 -77 -79 -128
t-137 -62v-194h128q14 0 23 -9t9 -23t-9 -23t-23 -9h-320q-14 0 -23 9t-9 23t9 23t23 9h128zM704 448v320h-384v-320q2 -82 56 -136t136 -56q82 2 136 56t56 136zM768 448h25q10 0 18.5 6t11.5 17l46 153q2 6 -2 11t-10 5h-89v-192zM256 448v192h-89q-6 0 -10 -5t-2 -11
l46 -153q3 -11 11.5 -17t18.5 -6h25z" />
    <glyph glyph-name="medal" unicode="&#xe70e;" 
d="M512 0q109 3 181 75t75 181q-3 109 -75 181t-181 75q-109 -3 -181 -75t-75 -181q3 -109 75 -181t181 -75zM512 -64q-136 3 -226.5 93.5t-93.5 226.5q3 136 93.5 226.5t226.5 93.5q136 -3 226.5 -93.5t93.5 -226.5q-3 -136 -93.5 -226.5t-226.5 -93.5zM576 768h-128v-200
q32 8 64 8q29 0 64 -8v200zM640 768v-220q37 -13 78 -34l39 254h-117zM384 768h-117l39 -254q41 21 78 34v220zM229 832h566q14 0 23.5 -11t7.5 -26l-58 -379q-171 96 -256 96t-256 -96l-58 379q-2 15 7.5 26t23.5 11z" />
    <glyph glyph-name="medal-1" unicode="&#xe70f;" 
d="M512 0q109 3 181 75t75 181q-3 109 -75 181t-181 75q-109 -3 -181 -75t-75 -181q3 -109 75 -181t181 -75zM512 -64q-136 3 -226.5 93.5t-93.5 226.5q3 136 93.5 226.5t226.5 93.5q136 -3 226.5 -93.5t93.5 -226.5q-3 -136 -93.5 -226.5t-226.5 -93.5zM480 416h64v-256h64
v-64h-192v64h64v192h-64v64h64zM576 768h-128v-200q32 8 64 8q29 0 64 -8v200zM640 768v-220q37 -13 78 -34l39 254h-117zM384 768h-117l39 -254q41 21 78 34v220zM229 832h566q14 0 23.5 -11t7.5 -26l-58 -379q-171 96 -256 96t-256 -96l-58 379q-2 15 7.5 26t23.5 11z" />
    <glyph glyph-name="stopwatch" unicode="&#xe710;" 
d="M512 0q163 4 271.5 112.5t112.5 271.5q-4 163 -112.5 271.5t-271.5 112.5q-163 -4 -271.5 -112.5t-112.5 -271.5q4 -163 112.5 -271.5t271.5 -112.5zM512 -64q-190 5 -316.5 131.5t-131.5 316.5q5 190 131.5 316.5t316.5 131.5q190 -5 316.5 -131.5t131.5 -316.5
q-5 -190 -131.5 -316.5t-316.5 -131.5zM672 661q-59 -262 -123 -372q-56 -78 -117 -43t-21 123q64 110 261 292z" />
    <glyph glyph-name="mic" unicode="&#xe711;" 
d="M480 192h160q27 1 45 19t19 45v32h-96q-14 0 -23 9t-9 23t9 23t23 9h96v96h-96q-14 0 -23 9t-9 23t9 23t23 9h96v96h-96q-14 0 -23 9t-9 23t9 23t23 9h96v32q-1 27 -19 45t-45 19h-256q-27 -1 -45 -19t-19 -45v-32h96q14 0 23 -9t9 -23t-9 -23t-23 -9h-96v-96h96
q14 0 23 -9t9 -23t-9 -23t-23 -9h-96v-96h96q14 0 23 -9t9 -23t-9 -23t-23 -9h-96v-32q1 -27 19 -45t45 -19h96zM544 128v-128h192q14 0 23 -9t9 -23t-9 -23t-23 -9h-448q-14 0 -23 9t-9 23t9 23t23 9h192v128h-96q-54 1 -90.5 37.5t-37.5 90.5v448q1 54 37.5 90.5
t90.5 37.5h256q54 -1 90.5 -37.5t37.5 -90.5v-448q-1 -54 -37.5 -90.5t-90.5 -37.5h-96z" />
    <glyph glyph-name="baseball" unicode="&#xe712;" 
d="M195 67q-131 138 -131 317t131 317q138 131 317 131t317 -131q131 -138 131 -317t-131 -317q-138 -131 -317 -131t-317 131zM240 112q119 -112 272 -112t272 112q112 119 112 272t-112 272q-119 112 -272 112t-272 -112q-112 -119 -112 -272t112 -272zM497 799
q35 -7 65 -14q-43 -78 -32 -162t73 -148q64 -62 148 -73t162 32q7 -30 14 -65q-95 -45 -194.5 -29t-175.5 89q-73 76 -89 175.5t29 194.5zM108 404q94 41 190 23.5t169 -88.5q71 -73 88.5 -169t-23.5 -190q-34 6 -66 12q40 77 27.5 158.5t-72.5 142.5q-61 60 -142.5 72.5
t-158.5 -27.5z" />
    <glyph glyph-name="soccer" unicode="&#xe713;" 
d="M418 25l-266 266q-12 -71 -1.5 -130t45 -93t93 -44.5t129.5 1.5zM491 43q63 21 120 55.5t104.5 82t82 104.5t55.5 120l-319 319q-64 -21 -121.5 -56t-105 -82t-82 -103.5t-55.5 -118.5zM871 478q12 71 1.5 129.5t-44.5 92.5t-92 44.5t-130 -2.5zM150 22q-86 93 -62 271.5
t173 337.5q159 149 339 175t274 -60q86 -94 61 -273t-174 -338q-159 -149 -338 -174t-273 61zM602 520l23 22q10 9 22.5 9t22 -9.5t9.5 -22t-9 -22.5l-22 -23l45 -45q13 -13 8 -30.5t-22.5 -22.5t-30.5 8l-46 45l-45 -45l45 -45q13 -13 8.5 -31t-22.5 -22.5t-31 8.5l-45 45
l-45 -45l45 -46q13 -13 8 -30.5t-22.5 -22.5t-30.5 8l-45 45l-23 -22q-13 -13 -31 -8.5t-22.5 22.5t8.5 31l22 23l-45 45q-13 13 -8 30.5t22.5 22.5t30.5 -8l46 -45l45 45l-45 45q-13 13 -8.5 31t22.5 22.5t31 -8.5l45 -45l45 45l-45 46q-9 10 -9 22.5t9.5 22t22 9.5
t22.5 -9z" />
    <glyph glyph-name="football" unicode="&#xe715;" 
d="M512 -64q-190 5 -316.5 131.5t-131.5 316.5q5 190 131.5 316.5t316.5 131.5q190 -5 316.5 -131.5t131.5 -316.5q-5 -190 -131.5 -316.5t-316.5 -131.5zM512 0q163 4 271.5 112.5t112.5 271.5q-4 163 -112.5 271.5t-271.5 112.5q-163 -4 -271.5 -112.5t-112.5 -271.5
q4 -163 112.5 -271.5t271.5 -112.5zM187 628q24 24 47 46q26 -46 66 -81l-33 -57q-47 39 -80 92zM841 633q-34 -55 -84 -97l-33 56q42 37 69 86q23 -21 48 -45zM466 451l11 63q35 -4 70 0l11 -63q-46 -6 -92 0zM403 464q-44 13 -83 35l32 56q29 -17 62 -28zM704 499
q-39 -22 -83 -35l-11 63q33 11 62 28zM183 135q34 55 84 97l33 -56q-41 -37 -68 -84q-24 20 -49 43zM841 134q-25 -23 -49 -43q-27 48 -68 85l33 56q50 -42 84 -98zM466 317q46 6 92 0l-11 -63q-35 4 -70 0zM403 304l11 -63q-33 -11 -62 -28l-32 56q39 22 83 35zM704 269
l-32 -56q-30 17 -63 28l12 63q44 -13 83 -35z" />
    <glyph glyph-name="basketball" unicode="&#xe716;" 
d="M779 108q51 49 80.5 112t35.5 133q-56 34 -119.5 37.5t-122.5 -23.5q88 -117 126 -259zM724 64q-17 73 -48.5 141t-76.5 128q-75 -64 -90.5 -155.5t34.5 -176.5q48 4 94 20t87 43zM470 2q-45 102 -21 205.5t109 174.5q-23 26 -48 49q-72 -85 -175 -109t-205 20
q8 -65 36 -124t74.5 -105.5t105 -74.5t124.5 -36zM129 415q85 -49 176.5 -33.5t154.5 89.5q-60 46 -127.5 77t-140.5 48q-27 -41 -43 -86.5t-20 -94.5zM236 651q141 -38 259 -125q26 59 22.5 122t-36.5 119q-70 -6 -133 -35.5t-112 -80.5zM554 766q30 -68 28 -141.5
t-37 -140.5q36 -31 67 -66q66 35 139.5 37t142.5 -29q-8 66 -36 124.5t-74.5 105t-105 74.5t-124.5 36zM829 67q-138 -131 -317 -131t-317 131q-131 138 -131 317t131 317q138 131 317 131t317 -131q131 -138 131 -317t-131 -317z" />
    <glyph glyph-name="star-off" unicode="&#xe717;" 
d="M512 148l228 -120q4 -1 7 1t2 6l-43 254l184 180q3 3 2 6.5t-5 4.5l-255 37l-114 231q-2 4 -6 4t-6 -4l-114 -231l-255 -37q-4 -1 -5 -4.5t2 -6.5l184 -180l-44 -254q0 -4 3 -6t7 -1zM314 -28q-19 -10 -38.5 -8.5t-36 13.5t-24 30.5t-4.5 38.5l38 221l-160 156
q-15 14 -19.5 33.5t2 39t21.5 32t35 15.5l222 32l99 201q9 19 26 29t37 10t37 -10t26 -29l99 -201l222 -32q20 -3 35.5 -15.5t21.5 -32t1.5 -39t-19.5 -33.5l-160 -156l38 -221q3 -20 -4.5 -38.5t-24 -30.5t-36 -13.5t-38.5 7.5l-198 105z" />
    <glyph glyph-name="copy-document" unicode="&#xe718;" 
d="M768 64q-1 -54 -37.5 -90.5t-90.5 -37.5h-448q-54 1 -90.5 37.5t-37.5 90.5v448q1 54 37.5 90.5t90.5 37.5v-64q-27 -1 -45 -19t-19 -45v-448q1 -27 19 -45t45 -19h448q27 1 45 19t19 45h64zM384 768q-27 -1 -45 -19t-19 -45v-448q1 -27 19 -45t45 -19h448q27 1 45 19
t19 45v448q-1 27 -19 45t-45 19h-448zM384 832h448q54 -1 90.5 -37.5t37.5 -90.5v-448q-1 -54 -37.5 -90.5t-90.5 -37.5h-448q-54 1 -90.5 37.5t-37.5 90.5v448q1 54 37.5 90.5t90.5 37.5z" />
    <glyph glyph-name="full-screen" unicode="&#xe719;" 
d="M160 800h192q14 -1 23 -10t9 -22.5t-9 -22.5t-23 -9h-192v-192q0 -14 -9 -23t-23 -9t-23 9t-9 23v256h64zM160 -32v0h-64v256q0 14 9 23t23 9t23 -9t9 -23v-192h192q14 0 23 -9t9 -22.5t-9 -22.5t-23 -10h-192zM864 800v0h64v-256q0 -14 -9 -23t-23 -9t-23 9t-9 23v192
h-192q-14 0 -23 9t-9 22.5t9 22.5t23 10h192zM864 -32h-192q-14 1 -23 10t-9 22.5t9 22.5t23 9h192v192q0 14 9 23t23 9t23 -9t9 -23v-256h-64z" />
    <glyph glyph-name="switch-button" unicode="&#xe71b;" 
d="M352 736v-70q-110 -59 -159.5 -167t-22.5 -229q31 -121 124 -194.5t218 -75.5q125 2 218 75.5t124 194.5q27 121 -22.5 229t-159.5 167v70q139 -61 207 -188.5t41 -276.5q-33 -149 -144.5 -240.5t-263.5 -94.5q-152 3 -264 94.5t-144 239.5q-27 150 41 277.5t207 188.5z
M480 832zM512 832v0q32 0 32 -32v-320q0 -32 -32 -32v0q-32 0 -32 32v320q0 32 32 32z" />
    <glyph glyph-name="aim" unicode="&#xe71c;" 
d="M512 0q163 4 271.5 112.5t112.5 271.5q-4 163 -112.5 271.5t-271.5 112.5q-163 -4 -271.5 -112.5t-112.5 -271.5q4 -163 112.5 -271.5t271.5 -112.5zM512 -64q-190 5 -316.5 131.5t-131.5 316.5q5 190 131.5 316.5t316.5 131.5q190 -5 316.5 -131.5t131.5 -316.5
q-5 -190 -131.5 -316.5t-316.5 -131.5zM512 800q14 0 23 -9t9 -23v-192q0 -14 -9 -23t-23 -9t-23 9t-9 23v192q0 14 9 23t23 9zM512 224q14 0 23 -9t9 -23v-192q0 -14 -9 -23t-23 -9t-23 9t-9 23v192q0 14 9 23t23 9zM96 384q0 14 9 23t23 9h192q14 0 23 -9t9 -23t-9 -23
t-23 -9h-192q-14 0 -23 9t-9 23zM672 384q0 14 9 23t23 9h192q14 0 23 -9t9 -23t-9 -23t-23 -9h-192q-14 0 -23 9t-9 23z" />
    <glyph glyph-name="crop" unicode="&#xe71d;" 
d="M256 128h672q14 0 23 -9t9 -23t-9 -23t-23 -9h-704q-14 0 -23 9t-9 23v704q0 14 9 23t23 9t23 -9t9 -23v-672zM832 672v-704q0 -14 -9 -23t-23 -9t-23 9t-9 23v672h-672q-14 0 -23 9t-9 23t9 23t23 9h704q14 0 23 -9t9 -23z" />
    <glyph glyph-name="odometer" unicode="&#xe71e;" 
d="M512 0q163 4 271.5 112.5t112.5 271.5q-4 163 -112.5 271.5t-271.5 112.5q-163 -4 -271.5 -112.5t-112.5 -271.5q4 -163 112.5 -271.5t271.5 -112.5zM512 -64q-190 5 -316.5 131.5t-131.5 316.5q5 190 131.5 316.5t316.5 131.5q190 -5 316.5 -131.5t131.5 -316.5
q-5 -190 -131.5 -316.5t-316.5 -131.5zM192 384q3 136 93.5 226.5t226.5 93.5q136 -3 226.5 -93.5t93.5 -226.5q0 -14 -9 -23t-23 -9t-23 9t-9 23q-3 109 -75 181t-181 75q-109 -3 -181 -75t-75 -181q0 -14 -9 -23t-23 -9t-23 9t-9 23zM570 268q28 -22 35.5 -55.5t-9 -65
t-48.5 -44.5t-66 -1.5t-52 40t-12.5 64t31 58t61.5 24.5l61 188q6 17 23.5 21t30 -9.5t6.5 -31.5zM502 162q13 -4 24.5 1.5t15.5 18.5t-1.5 24.5t-18.5 15.5t-24.5 -1.5t-15.5 -18.5t1.5 -24.5t18.5 -15.5z" />
    <glyph glyph-name="time" unicode="&#xe71f;" 
d="M512 0q163 4 271.5 112.5t112.5 271.5q-4 163 -112.5 271.5t-271.5 112.5q-163 -4 -271.5 -112.5t-112.5 -271.5q4 -163 112.5 -271.5t271.5 -112.5zM512 -64q-190 5 -316.5 131.5t-131.5 316.5q5 190 131.5 316.5t316.5 131.5q190 -5 316.5 -131.5t131.5 -316.5
q-5 -190 -131.5 -316.5t-316.5 -131.5zM480 640q14 0 23 -9t9 -23v-256q0 -14 -9 -23t-23 -9t-23 9t-9 23v256q0 14 9 23t23 9zM448 384zM480 384h256q32 0 32 -32v0q0 -32 -32 -32h-256q-32 0 -32 32v0q0 32 32 32z" />
    <glyph glyph-name="circle-check" unicode="&#xe720;" 
d="M512 0q163 4 271.5 112.5t112.5 271.5q-4 163 -112.5 271.5t-271.5 112.5q-163 -4 -271.5 -112.5t-112.5 -271.5q4 -163 112.5 -271.5t271.5 -112.5zM512 -64q-190 5 -316.5 131.5t-131.5 316.5q5 190 131.5 316.5t316.5 131.5q190 -5 316.5 -131.5t131.5 -316.5
q-5 -190 -131.5 -316.5t-316.5 -131.5zM745 535q10 9 23 9t22.5 -9.5t9.5 -22.5t-9 -23l-288 -288q-10 -9 -23 -9t-23 9l-160 160q-9 10 -9 23t9.5 22.5t22.5 9.5t23 -9l137 -138z" />
    <glyph glyph-name="remove-outline" unicode="&#xe722;" 
d="M352 416h320q14 0 23 -9t9 -23t-9 -23t-23 -9h-320q-14 0 -23 9t-9 23t9 23t23 9zM512 0q163 4 271.5 112.5t112.5 271.5q-4 163 -112.5 271.5t-271.5 112.5q-163 -4 -271.5 -112.5t-112.5 -271.5q4 -163 112.5 -271.5t271.5 -112.5zM512 -64q-190 5 -316.5 131.5
t-131.5 316.5q5 190 131.5 316.5t316.5 131.5q190 -5 316.5 -131.5t131.5 -316.5q-5 -190 -131.5 -316.5t-316.5 -131.5z" />
    <glyph glyph-name="circle-plus-outline" unicode="&#xe723;" 
d="M352 416h320q14 0 23 -9t9 -23t-9 -23t-23 -9h-320q-14 0 -23 9t-9 23t9 23t23 9zM480 224v320q0 14 9 23t23 9t23 -9t9 -23v-320q0 -14 -9 -23t-23 -9t-23 9t-9 23zM512 0q163 4 271.5 112.5t112.5 271.5q-4 163 -112.5 271.5t-271.5 112.5q-163 -4 -271.5 -112.5
t-112.5 -271.5q4 -163 112.5 -271.5t271.5 -112.5zM512 -64q-190 5 -316.5 131.5t-131.5 316.5q5 190 131.5 316.5t316.5 131.5q190 -5 316.5 -131.5t131.5 -316.5q-5 -190 -131.5 -316.5t-316.5 -131.5z" />
    <glyph glyph-name="bangzhu" unicode="&#xe724;" 
d="M512 0q163 4 271.5 112.5t112.5 271.5q-4 163 -112.5 271.5t-271.5 112.5q-163 -4 -271.5 -112.5t-112.5 -271.5q4 -163 112.5 -271.5t271.5 -112.5zM512 -64q-190 5 -316.5 131.5t-131.5 316.5q5 190 131.5 316.5t316.5 131.5q190 -5 316.5 -131.5t131.5 -316.5
q-5 -190 -131.5 -316.5t-316.5 -131.5zM512 192q82 2 136 56t56 136q-2 82 -56 136t-136 56q-82 -2 -136 -56t-56 -136q2 -82 56 -136t136 -56zM512 128q-109 3 -181 75t-75 181q3 109 75 181t181 75q109 -3 181 -75t75 -181q-3 -109 -75 -181t-181 -75zM623 541l161 160
l45 -45l-160 -161q-19 27 -46 46zM669 273l160 -161l-45 -45l-161 160q27 19 46 46zM401 227l-161 -160l-45 45l160 161q19 -27 46 -46zM355 495l-160 161l45 45l161 -160q-27 -19 -46 -46z" />
    <glyph glyph-name="bell" unicode="&#xe725;" 
d="M512 832q27 -1 45 -19t19 -45v-64h-128v64q1 27 19 45t45 19zM256 128h512v320q-3 109 -75 181t-181 75q-109 -3 -181 -75t-75 -181v-320zM512 768q136 -3 226.5 -93.5t93.5 -226.5v-384h-640v384q3 136 93.5 226.5t226.5 93.5zM64 128zM96 128h832q32 0 32 -32v0
q0 -32 -32 -32h-832q-32 0 -32 32v0q0 32 32 32zM448 0h128q-1 -27 -19 -45t-45 -18t-45 18t-19 45z" />
    <glyph glyph-name="close-notification" unicode="&#xe726;" 
d="M241 64l64 64h463v320q-1 64 -28 118l46 47q22 -37 34 -78.5t12 -86.5v-320h96q14 0 23 -9t9 -23t-9 -23t-23 -9h-687zM151 64h-55q-14 0 -23 9t-9 23t9 23t23 9h96v320q2 117 72 202.5t184 111.5v6q1 27 19 45t45 18t45 -18t19 -45v-6q50 -11 93.5 -35.5t78.5 -61.5
l-46 -46q-54 60 -130 78t-151.5 -11t-119.5 -93t-45 -145v-278zM448 0h128q-1 -27 -19 -45t-45 -18t-45 18t-19 45zM151 37q-10 -9 -22.5 -9t-22 9.5t-10 22t8.5 22.5l704 709q10 9 22.5 9t22 -9.5t10 -22.5t-8.5 -23z" />
    <glyph glyph-name="microphone" unicode="&#xe727;" 
d="M512 768q-54 -1 -90.5 -37.5t-37.5 -90.5v-256q1 -54 37.5 -90.5t90.5 -37.5q54 1 90.5 37.5t37.5 90.5v256q-1 54 -37.5 90.5t-90.5 37.5zM512 832q82 -2 136 -56t56 -136v-256q-2 -82 -56 -136t-136 -56q-82 2 -136 56t-56 136v256q2 82 56 136t136 56zM480 0v64
q-122 3 -203.5 84.5t-84.5 203.5v32q0 14 9 23t23 9t23 -9t9 -23v-32q2 -95 65.5 -158.5t158.5 -65.5h64q95 2 158.5 65.5t65.5 158.5v32q0 14 9 23t23 9t23 -9t9 -23v-32q-3 -122 -84.5 -203.5t-203.5 -84.5v-64h64q14 0 23 -9t9 -23t-9 -23t-23 -9h-192q-14 0 -23 9t-9 23
t9 23t23 9h64z" />
    <glyph glyph-name="turn-off-microphone" unicode="&#xe728;" 
d="M412 304l-45 -46q-23 27 -35 59t-12 67v256q2 82 56 136t136 56q82 -2 136 -56t56 -136v-44l-64 -64v108q-1 54 -37.5 90.5t-90.5 37.5q-54 -1 -90.5 -37.5t-37.5 -90.5v-256q1 -46 28 -80zM464 265q30 -12 61.5 -8.5t58 21.5t41.5 46t15 60v57l64 64v-121
q0 -52 -25.5 -96t-70.5 -70t-95.5 -26t-96.5 25zM315 116l46 46q55 -34 119 -34h64q95 2 158.5 65.5t65.5 158.5v32q0 14 9 23t23 9t23 -9t9 -23v-32q-3 -122 -84.5 -203.5t-203.5 -84.5v-64h64q14 0 23 -9t9 -23t-9 -23t-23 -9h-192q-14 0 -23 9t-9 23t9 23t23 9h64v64
q-46 0 -88 13.5t-77 38.5zM267 158q-37 41 -56 90.5t-19 103.5v32q0 14 9 23t23 9t23 -9t9 -23v-32q0 -43 15 -80.5t41 -67.5zM151 37q-10 -9 -22.5 -9t-22 9.5t-10 22t8.5 22.5l704 709q10 9 22.5 9t22 -9.5t10 -22.5t-8.5 -23z" />
    <glyph glyph-name="position" unicode="&#xe729;" 
d="M250 479l319 -43l40 -310l236 591zM121 432q-11 1 -18.5 8.5t-9 19t4 20.5t15.5 13l778 311q9 4 18 2t16 -9t9 -16t-2 -18l-310 -776q-4 -10 -13.5 -15.5t-20.5 -4t-18.5 9t-8.5 18.5l-49 384z" />
    <glyph glyph-name="postcard" unicode="&#xe72a;" 
d="M160 672q-14 0 -23 -9t-9 -23v-512q0 -14 9 -23t23 -9h704q14 0 23 9t9 23v512q0 14 -9 23t-23 9h-704zM160 736h704q41 -1 68 -28t28 -68v-512q-1 -41 -28 -68t-68 -28h-704q-41 1 -68 28t-28 68v512q1 41 28 68t68 28zM704 576q27 -1 45 -19t18 -45t-18 -45t-45 -18
t-45 18t-18 45t18 45t45 19zM256 448zM288 448h256q32 0 32 -32v0q0 -32 -32 -32h-256q-32 0 -32 32v0q0 32 32 32zM256 320zM288 320h256q32 0 32 -32v0q0 -32 -32 -32h-256q-32 0 -32 32v0q0 32 32 32z" />
    <glyph glyph-name="message" unicode="&#xe72b;" 
d="M128 672v-512q1 -27 19 -45t45 -19h640q27 1 45 19t19 45v512h-768zM128 736h768q27 -1 45 -19t19 -45v-512q-1 -54 -37.5 -90.5t-90.5 -37.5h-640q-54 1 -90.5 37.5t-37.5 90.5v512q1 27 19 45t45 19zM904 672l-247 -283q-28 -31 -65.5 -48t-79.5 -17t-79.5 17t-65.5 48
l-247 283h784zM205 672l211 -241q18 -21 43 -32t53 -11t53 11t43 32l211 241h-614z" />
    <glyph glyph-name="chat-line-square" unicode="&#xe72d;" 
d="M160 69l114 91h526q27 1 45 19t19 45v416q-1 27 -19 45t-45 19h-576q-27 -1 -45 -19t-19 -45v-571zM296 96l-148 -118q-16 -12 -33.5 -3.5t-18.5 28.5v637q1 54 37.5 90.5t90.5 37.5h576q54 -1 90.5 -37.5t37.5 -90.5v-416q-1 -54 -37.5 -90.5t-90.5 -37.5h-504zM320 384
zM352 384h320q32 0 32 -32v0q0 -32 -32 -32h-320q-32 0 -32 32v0q0 32 32 32zM320 576zM352 576h320q32 0 32 -32v0q0 -32 -32 -32h-320q-32 0 -32 32v0q0 32 32 32z" />
    <glyph glyph-name="chat-dot-square" unicode="&#xe72e;" 
d="M274 160h526q27 1 45 19t19 45v416q-1 27 -19 45t-45 19h-576q-27 -1 -45 -19t-19 -45v-571zM296 96l-148 -118q-16 -12 -33.5 -3.5t-18.5 28.5v637q1 54 37.5 90.5t90.5 37.5h576q54 -1 90.5 -37.5t37.5 -90.5v-416q-1 -54 -37.5 -90.5t-90.5 -37.5h-504zM512 397
q-22 0 -36.5 14.5t-14.5 36.5t14.5 36.5t36.5 14.5t36.5 -14.5t14.5 -36.5t-14.5 -36.5t-36.5 -14.5zM704 397q-22 0 -36.5 14.5t-14.5 36.5t14.5 36.5t36.5 14.5t36.5 -14.5t14.5 -36.5t-14.5 -36.5t-36.5 -14.5zM320 397q-22 0 -36.5 14.5t-14.5 36.5t14.5 36.5t36.5 14.5
t36.5 -14.5t14.5 -36.5t-14.5 -36.5t-36.5 -14.5z" />
    <glyph glyph-name="chat-dot-round" unicode="&#xe72f;" 
d="M175 40l135 45l24 -11q82 -42 178 -42q163 5 271.5 106.5t112.5 245.5q-4 144 -112.5 245.5t-271.5 106.5q-163 -5 -271.5 -106.5t-112.5 -245.5q0 -52 18 -103t53 -96l22 -29zM129 -42q-19 -6 -32.5 8.5t-6.5 33.5l58 146q-40 53 -62 113.5t-22 124.5q4 165 128 287.5
t320 128.5q196 -6 320 -128.5t128 -287.5q-4 -165 -128 -287.5t-320 -128.5q-109 0 -207 48zM512 333q-14 0 -25.5 6.5t-18.5 19t-7 25.5t7 25.5t18.5 19t25.5 6.5q22 0 36.5 -14.5t14.5 -36.5t-14.5 -36.5t-36.5 -14.5zM704 333q-14 0 -25.5 6.5t-18.5 19t-7 25.5t7 25.5
t18.5 19t25.5 6.5q22 0 36.5 -14.5t14.5 -36.5t-14.5 -36.5t-36.5 -14.5zM320 333q-14 0 -25.5 6.5t-18.5 19t-7 25.5t7 25.5t18.5 19t25.5 6.5q22 0 36.5 -14.5t14.5 -36.5t-14.5 -36.5t-36.5 -14.5z" />
    <glyph glyph-name="chat-square" unicode="&#xe730;" 
d="M274 160h526q27 1 45 19t19 45v416q-1 27 -19 45t-45 19h-576q-27 -1 -45 -19t-19 -45v-571zM296 96l-148 -118q-16 -12 -33.5 -3.5t-18.5 28.5v637q1 54 37.5 90.5t90.5 37.5h576q54 -1 90.5 -37.5t37.5 -90.5v-416q-1 -54 -37.5 -90.5t-90.5 -37.5h-504z" />
    <glyph glyph-name="chat-line-round" unicode="&#xe731;" 
d="M175 40l135 45l24 -11q82 -42 178 -42q163 5 271.5 106.5t112.5 245.5q-4 144 -112.5 245.5t-271.5 106.5q-163 -5 -271.5 -106.5t-112.5 -245.5q0 -52 18 -103t53 -96l22 -29zM129 -42q-19 -6 -32.5 8.5t-6.5 33.5l58 146q-40 53 -62 113.5t-22 124.5q4 165 128 287.5
t320 128.5q196 -6 320 -128.5t128 -287.5q-4 -165 -128 -287.5t-320 -128.5q-109 0 -207 48zM320 320zM352 320h320q32 0 32 -32v0q0 -32 -32 -32h-320q-32 0 -32 32v0q0 32 32 32zM352 512zM384 512h256q32 0 32 -32v0q0 -32 -32 -32h-256q-32 0 -32 32v0q0 32 32 32z" />
    <glyph glyph-name="chat-round" unicode="&#xe732;" 
d="M175 40l130 44l23 -12q82 -40 184 -40q171 4 276 104t108 248q-3 149 -107.5 248.5t-276.5 103.5q-172 -4 -276.5 -103.5t-107.5 -248.5q0 -56 18 -108t51 -96l22 -29zM129 -42q-19 -6 -32.5 8.5t-6.5 33.5l56 141q-40 53 -61 115t-21 128q2 165 120.5 287.5t327.5 128.5
q209 -6 327.5 -128.5t120.5 -287.5q-2 -165 -121 -287.5t-327 -128.5q-120 1 -212 47z" />
    <glyph glyph-name="set-up" unicode="&#xe733;" 
d="M224 736q-27 -1 -45 -19t-19 -45v-576q1 -27 19 -45t45 -19h576q27 1 45 19t19 45v576q-1 27 -19 45t-45 19h-576zM224 800h576q54 -1 90.5 -37.5t37.5 -90.5v-576q-1 -54 -37.5 -90.5t-90.5 -37.5h-576q-54 1 -90.5 37.5t-37.5 90.5v576q1 54 37.5 90.5t90.5 37.5z
M384 480q27 1 45 19t18 45t-18 45t-45 18t-45 -18t-18 -45t18 -45t45 -19zM384 416q-54 1 -90.5 37.5t-37.5 90.5q1 54 37.5 90.5t90.5 37.5q54 -1 90.5 -37.5t37.5 -90.5q-1 -54 -37.5 -90.5t-90.5 -37.5zM448 576zM480 576h256q32 0 32 -32v0q0 -32 -32 -32h-256
q-32 0 -32 32v0q0 32 32 32zM640 160q27 1 45 19t18 45t-18 45t-45 18t-45 -18t-18 -45t18 -45t45 -19zM640 96q-54 1 -90.5 37.5t-37.5 90.5q1 54 37.5 90.5t90.5 37.5q54 -1 90.5 -37.5t37.5 -90.5q-1 -54 -37.5 -90.5t-90.5 -37.5zM256 256zM288 256h256q32 0 32 -32v0
q0 -32 -32 -32h-256q-32 0 -32 32v0q0 32 32 32z" />
    <glyph glyph-name="turn-off" unicode="&#xe734;" 
d="M330 639q-108 -3 -180 -75t-75 -180q3 -108 75 -180t180 -75h364q108 3 180 75t75 180q-3 108 -75 180t-180 75h-364zM330 712h364q139 -4 231.5 -96.5t96.5 -231.5q-4 -139 -96.5 -231.5t-231.5 -96.5h-364q-139 4 -231.5 96.5t-96.5 231.5q4 139 96.5 231.5t231.5 96.5
zM330 275q30 0 54.5 14.5t39.5 40t15 54.5t-15 54.5t-39.5 40t-54.5 14.5q-46 -1 -77 -32t-32 -77q1 -46 32 -77t77 -32zM330 202q-77 2 -128.5 53.5t-53.5 128.5q2 77 53.5 128.5t128.5 53.5q77 -2 128.5 -53.5t53.5 -128.5q-2 -77 -53.5 -128.5t-128.5 -53.5z" />
    <glyph glyph-name="open" unicode="&#xe735;" 
d="M330 639q-108 -3 -180 -75t-75 -180q3 -108 75 -180t180 -75h364q108 3 180 75t75 180q-3 108 -75 180t-180 75h-364zM330 712h364q139 -4 231.5 -96.5t96.5 -231.5q-4 -139 -96.5 -231.5t-231.5 -96.5h-364q-139 4 -231.5 96.5t-96.5 231.5q4 139 96.5 231.5t231.5 96.5
zM694 275q30 0 55 14.5t39.5 40t14.5 54.5t-14.5 54.5t-39.5 40t-55 14.5q-46 -1 -77 -32t-32 -77q1 -46 32 -77t77 -32zM694 202q-77 2 -128.5 53.5t-53.5 128.5q2 77 53.5 128.5t128.5 53.5q77 -2 128.5 -53.5t53.5 -128.5q-2 -77 -53.5 -128.5t-128.5 -53.5z" />
    <glyph glyph-name="connection" unicode="&#xe736;" 
d="M640 512v-64h-192q-54 -1 -90.5 -37.5t-37.5 -90.5v-128q1 -54 37.5 -90.5t90.5 -37.5h320q54 1 90.5 37.5t37.5 90.5v128q0 35 -17 64t-47 47v70q57 -21 92 -69t36 -112v-128q-2 -82 -56 -136t-136 -56h-320q-82 2 -136 56t-56 136v128q2 82 56 136t136 56h192zM384 256
v64h192q54 1 90.5 37.5t37.5 90.5v128q-1 54 -37.5 90.5t-90.5 37.5h-320q-54 -1 -90.5 -37.5t-37.5 -90.5v-128q0 -35 17 -64t47 -47v-70q-58 21 -92.5 70t-35.5 111v128q2 82 56 136t136 56h320q82 -2 136 -56t56 -136v-128q-2 -82 -56 -136t-136 -56h-192z" />
    <glyph glyph-name="link" unicode="&#xe737;" 
d="M716 271l-46 45l91 91q56 59 62.5 129t-39.5 120q-50 46 -120 39.5t-129 -62.5l-91 -91l-45 46l90 90q79 75 175 81.5t165 -58.5q65 -69 58.5 -165t-81.5 -175zM625 180l-90 -90q-79 -75 -175 -81.5t-165 58.5q-65 69 -58.5 165t81.5 175l90 90l46 -45l-91 -91
q-56 -59 -62.5 -129t39.5 -120q50 -46 120 -39.5t129 62.5l91 91zM625 542l45 -45l-271 -271l-45 45z" />
    <glyph glyph-name="cpu" unicode="&#xe738;" 
d="M320 640q-27 -1 -45 -19t-19 -45v-384q1 -27 19 -45t45 -19h384q27 1 45 19t19 45v384q-1 27 -19 45t-45 19h-384zM320 704h384q54 -1 90.5 -37.5t37.5 -90.5v-384q-1 -54 -37.5 -90.5t-90.5 -37.5h-384q-54 1 -90.5 37.5t-37.5 90.5v384q1 54 37.5 90.5t90.5 37.5z
M512 832q14 0 23 -9t9 -23v-128h-64v128q0 14 9 23t23 9zM672 832q14 0 23 -9t9 -23v-128h-64v128q0 14 9 23t23 9zM352 832q14 0 23 -9t9 -23v-128h-64v128q0 14 9 23t23 9zM512 -64q-14 0 -23 9t-9 23v128h64v-128q0 -14 -9 -23t-23 -9zM672 -64q-14 0 -23 9t-9 23v128h64
v-128q0 -14 -9 -23t-23 -9zM352 -64q-14 0 -23 9t-9 23v128h64v-128q0 -14 -9 -23t-23 -9zM64 384q0 14 9 23t23 9h128v-64h-128q-14 0 -23 9t-9 23zM64 544q0 14 9 23t23 9h128v-64h-128q-14 0 -23 9t-9 23zM64 224q0 14 9 23t23 9h128v-64h-128q-14 0 -23 9t-9 23z
M960 384q0 -14 -9 -23t-23 -9h-128v64h128q14 0 23 -9t9 -23zM960 544q0 -14 -9 -23t-23 -9h-128v64h128q14 0 23 -9t9 -23zM960 224q0 -14 -9 -23t-23 -9h-128v64h128q14 0 23 -9t9 -23z" />
    <glyph glyph-name="thumb" unicode="&#xe739;" 
d="M512 768q-28 -1 -46 -19t-19 -45v-517l-173 138q-25 20 -55.5 21t-57.5 -17q-14 -12 -17 -30t8 -33l181 -240q9 -13 22.5 -19.5t28.5 -6.5h512v321q0 21 -12.5 38t-33.5 23l-206 62q-31 10 -49.5 34.5t-18.5 57.5v168q-1 27 -19 45t-45 19zM359 339l24 -19v384
q0 35 16.5 65t47 48t65 18t65 -18t47 -48t16.5 -65v-168q0 -11 6 -19.5t17 -11.5l206 -62q41 -13 65.5 -46t25.5 -76v-321q-1 -27 -19 -45t-45 -19h-512q-31 0 -57.5 13.5t-44.5 37.5l-181 241q-13 18 -18.5 39.5t-1.5 44t16 41t31 30.5q44 29 94.5 26.5t91.5 -34.5z" />
    <glyph glyph-name="female" unicode="&#xe73a;" 
d="M512 256q109 3 181 75t75 181q-3 109 -75 181t-181 75q-109 -3 -181 -75t-75 -181q3 -109 75 -181t181 -75zM512 192q-136 3 -226.5 93.5t-93.5 226.5q3 136 93.5 226.5t226.5 93.5q136 -3 226.5 -93.5t93.5 -226.5q-3 -136 -93.5 -226.5t-226.5 -93.5zM480 256zM512 256
v0q32 0 32 -32v-256q0 -32 -32 -32v0q-32 0 -32 32v256q0 32 32 32zM320 96zM352 96h320q32 0 32 -32v0q0 -32 -32 -32h-320q-32 0 -32 32v0q0 32 32 32z" />
    <glyph glyph-name="male" unicode="&#xe73b;" 
d="M400 47q95 2 158.5 65.5t66.5 159.5q-3 95 -66.5 158.5t-158.5 66.5q-96 -3 -159.5 -66.5t-65.5 -158.5q2 -96 65.5 -159.5t158.5 -65.5h1zM400 -10q-120 3 -199.5 82.5t-82.5 198.5q3 120 82.5 199.5t198.5 82.5q120 -3 199.5 -82.5t82.5 -198.5q-3 -120 -82.5 -199.5
t-198.5 -82.5zM625 778zM653 778h225q28 0 28 -28v0q0 -28 -28 -28h-225q-28 0 -28 28v0q0 28 28 28zM850 778zM878 778v0q28 0 28 -28v-225q0 -28 -28 -28v0q-28 0 -28 28v225q0 28 28 28zM605 437l-40 40l293 293l40 -40z" />
    <glyph glyph-name="guide" unicode="&#xe73c;" 
d="M640 288h-64v192h64v-192zM640 128v-160q0 -14 -9 -23t-23 -9h-192q-14 0 -23 9t-9 23v160h64v-128h128v128h64zM384 288v192h64v-192h-64zM640 640h-64v128h-128v-128h-64v160q0 14 9 23t23 9h192q14 0 23 -9t9 -23v-160zM221 640l-71 -80l71 -80h547v160h-547zM206 704
h594q14 0 23 -9t9 -23v-224q0 -14 -9 -23t-23 -9h-594q-14 0 -24 11l-99 112q-8 9 -8 21t8 21l99 112q10 11 24 11zM885 208l-71 -80h-547v160h547zM828 352h-593q-14 0 -23 -9t-9 -23v-224q0 -14 9 -23t23 -9h593q15 0 24 11l100 112q8 9 8 21t-8 21l-100 112q-9 11 -24 11
z" />
    <glyph glyph-name="help" unicode="&#xe73d;" 
d="M760 91l-91 91q-34 -27 -74 -40.5t-83 -13.5t-83 13.5t-74 40.5l-91 -91q52 -44 115.5 -67.5t132.5 -23.5q71 0 134 24t114 67zM805 136q44 52 67.5 115.5t23.5 132.5q0 71 -24 134t-67 114l-91 -91q26 -33 40 -72.5t14 -84.5t-14 -84.5t-40 -72.5zM760 677
q-52 44 -115.5 67.5t-132.5 23.5q-71 0 -134 -24t-114 -67l91 -91q34 27 74 40.5t84 13.5t83.5 -14t72.5 -40zM219 632q-44 -52 -67.5 -115.5t-23.5 -132.5q0 -71 24 -134t67 -114l91 91q-27 34 -40.5 74t-13.5 84t14 83.5t40 72.5zM636 237q12 11 23 23q21 25 33 56.5
t12 67.5q0 43 -17.5 81t-50.5 66q-26 22 -58 33.5t-66 11.5q-43 0 -81 -17.5t-66 -50.5q-21 -25 -33 -56.5t-12 -67.5q0 -43 17.5 -81t50.5 -66q25 -21 56.5 -33t67.5 -12t67.5 12t56.5 33zM512 -64q-190 5 -316.5 131.5t-131.5 316.5q5 190 131.5 316.5t316.5 131.5
q190 -5 316.5 -131.5t131.5 -316.5q-5 -190 -131.5 -316.5t-316.5 -131.5z" />
    <glyph glyph-name="news" unicode="&#xe73e;" 
d="M512 768v-64h-256q-27 -1 -45 -19t-19 -45v-512q1 -27 19 -45t45 -19h512q27 1 45 19t19 45v256h64v-256q-1 -54 -37.5 -90.5t-90.5 -37.5h-512q-54 1 -90.5 37.5t-37.5 90.5v512q1 54 37.5 90.5t90.5 37.5h256zM768 512q54 1 90.5 37.5t37.5 90.5q-1 54 -37.5 90.5
t-90.5 37.5q-54 -1 -90.5 -37.5t-37.5 -90.5q1 -54 37.5 -90.5t90.5 -37.5zM768 448q-82 2 -136 56t-56 136q2 82 56 136t136 56q82 -2 136 -56t56 -136q-2 -82 -56 -136t-136 -56z" />
    <glyph glyph-name="ship" unicode="&#xe73f;" 
d="M512 509v-61h406q15 0 24.5 -13t5.5 -28l-76 -268q-19 -63 -69 -100.5t-116 -38.5h-350q-66 1 -116 38.5t-69 100.5l-76 268q-4 15 5.5 28t24.5 13h342v330q1 18 16 27t31 1l14 -7l3 1v-3l232 -126q16 -10 15.5 -29.5t-17.5 -27.5zM512 579l145 66l-145 79v-145zM512 384
h-363l18 -64h690l18 64h-363zM185 256l29 -99q12 -42 45.5 -67t77.5 -26h350q44 1 77.5 26t45.5 67l29 99h-654z" />
    <glyph glyph-name="truck" unicode="&#xe740;" 
d="M129 160h-33q-14 0 -23 9t-9 23v480q0 14 9 23t23 9h576q14 0 23 -9t9 -23v-96h165q12 0 20.5 -7.5t10.5 -19.5l54 -352q2 -15 -7.5 -26t-23.5 -11h-92q4 -42 -13.5 -78.5t-53 -59t-76.5 -22.5t-76.5 22.5t-53 59t-13.5 78.5h-130q4 -42 -13.5 -78.5t-53 -59t-76.5 -22.5
t-76.5 22.5t-53 59t-13.5 78.5zM152 224q21 30 52 47t68 17t68 -17t52 -47h176q27 39 72 56v360h-512v-416h24zM808 224h77l-19 128h-162v-65q32 -4 59 -20t45 -43zM856 416l-15 96h-137v-96h152zM688 64q34 1 56.5 23.5t22.5 56.5t-22.5 56.5t-56.5 22.5t-56.5 -22.5
t-22.5 -56.5t22.5 -56.5t56.5 -23.5zM272 64q34 1 56.5 23.5t22.5 56.5t-22.5 56.5t-56.5 22.5t-56.5 -22.5t-22.5 -56.5t22.5 -56.5t56.5 -23.5z" />
    <glyph glyph-name="bicycle" unicode="&#xe741;" 
d="M256 64q54 1 90.5 37.5t37.5 90.5q-1 54 -37.5 90.5t-90.5 37.5q-54 -1 -90.5 -37.5t-37.5 -90.5q1 -54 37.5 -90.5t90.5 -37.5zM256 0q-82 2 -136 56t-56 136q2 82 56 136t136 56q82 -2 136 -56t56 -136q-2 -82 -56 -136t-136 -56zM256 224zM288 224h320q32 0 32 -32v0
q0 -32 -32 -32h-320q-32 0 -32 32v0q0 32 32 32zM768 64q54 1 90.5 37.5t37.5 90.5q-1 54 -37.5 90.5t-90.5 37.5q-54 -1 -90.5 -37.5t-37.5 -90.5q1 -54 37.5 -90.5t90.5 -37.5zM768 0q-82 2 -136 56t-56 136q2 82 56 136t136 56q82 -2 136 -56t56 -136q-2 -82 -56 -136
t-136 -56zM480 704q-14 0 -23 9t-9 23t9 23t23 9h160q11 0 19.5 -6.5t11.5 -17.5l96 -384q3 -13 -4 -24t-19.5 -14t-23.5 3t-15 19l-90 360h-135zM96 512q-14 0 -23 9t-9 23t9 23t23 9h128q11 0 19 -6t11 -16l64 -192q6 -18 -6 -32t-30.5 -10t-23.5 22l-57 170h-105z
M373 296l-42 48l320 288l42 -48z" />
    <glyph glyph-name="price-tag" unicode="&#xe744;" 
d="M224 578v-578h576v578l-247 202q-19 15 -41 15t-41 -15zM593 830l259 -212q12 -10 12 -25v-625q0 -14 -9 -23t-23 -9h-640q-14 0 -23 9t-9 23v625q0 15 12 25l259 212q37 29 81 29t81 -29zM512 448q27 1 45 19t18 45t-18 45t-45 18t-45 -18t-18 -45t18 -45t45 -19z
M512 384q-54 1 -90.5 37.5t-37.5 90.5q1 54 37.5 90.5t90.5 37.5q54 -1 90.5 -37.5t37.5 -90.5q-1 -54 -37.5 -90.5t-90.5 -37.5z" />
    <glyph glyph-name="discount" unicode="&#xe745;" 
d="M224 192h576v386l-247 202q-19 15 -41 15t-41 -15l-247 -202v-386zM224 128v-128h576v128h-576zM593 830l259 -212q12 -10 12 -25v-625q0 -14 -9 -23t-23 -9h-640q-14 0 -23 9t-9 23v625q0 15 12 25l259 212q37 29 81 29t81 -29zM512 448q27 1 45 19t18 45t-18 45t-45 18
t-45 -18t-18 -45t18 -45t45 -19zM512 384q-54 1 -90.5 37.5t-37.5 90.5q1 54 37.5 90.5t90.5 37.5q54 -1 90.5 -37.5t37.5 -90.5q-1 -54 -37.5 -90.5t-90.5 -37.5z" />
    <glyph glyph-name="wallet" unicode="&#xe747;" 
d="M640 608h-64v160h-448v-704h384v-32q0 -14 9 -23t23 -9h-448q-14 0 -23 9t-9 23v768q0 14 9 23t23 9h512q14 0 23 -9t9 -23v-192zM128 576v-512h768v512h-768zM96 640h832q14 0 23 -9t9 -23v-576q0 -14 -9 -23t-23 -9h-832q-14 0 -23 9t-9 23v576q0 14 9 23t23 9z
M704 256q-27 1 -45 19t-18 45t18 45t45 18t45 -18t18 -45t-18 -45t-45 -19z" />
    <glyph glyph-name="coin" unicode="&#xe748;" 
d="M162 315l30 -59q-31 -30 -32 -64q4 -64 102.5 -111t249.5 -49q151 2 249.5 49t102.5 111q-1 34 -32 64l31 59q31 -26 48 -57t17 -66q-5 -99 -123 -160.5t-293 -63.5q-175 2 -293 63.5t-123 160.5q0 35 17.5 66t48.5 57zM162 507l30 -59q-31 -30 -32 -64q4 -64 102.5 -111
t249.5 -49q151 2 249.5 49t102.5 111q-1 34 -32 64l31 59q31 -26 48 -57t17 -66q-5 -99 -123 -160.5t-293 -63.5q-175 2 -293 63.5t-123 160.5q0 35 17.5 66t48.5 57zM512 352q-175 2 -293 63.5t-123 160.5q5 99 123 160.5t293 63.5q175 -2 293 -63.5t123 -160.5
q-5 -99 -123 -160.5t-293 -63.5zM512 416q151 2 249.5 49t102.5 111q-4 64 -102.5 111t-249.5 49q-151 -2 -249.5 -49t-102.5 -111q4 -64 102.5 -111t249.5 -49z" />
    <glyph glyph-name="money" unicode="&#xe749;" 
d="M256 256v-192h640v448h-128v64h151q10 0 15.5 -1t9.5 -3q8 -5 12 -12q2 -4 3 -9.5t1 -15.5v-494q0 -10 -1 -15.5t-3 -9.5q-5 -8 -12 -12q-4 -2 -9.5 -3t-15.5 -1h-686q-10 0 -15.5 1t-9.5 3q-8 5 -12 12q-2 4 -3 9.5t-1 15.5v215h64zM768 704h-640v-448h640v448zM832 727
v-494q0 -10 -1 -15.5t-3 -9.5q-5 -8 -12 -12q-4 -2 -9.5 -3t-15.5 -1h-686q-10 0 -15.5 1t-9.5 3q-8 5 -12 12q-2 4 -3 9.5t-1 15.5v494q0 10 1 15.5t3 9.5q5 8 12 12q4 2 9.5 3t15.5 1h686q10 0 15.5 -1t9.5 -3q7 -5 12 -12q2 -4 3 -9.5t1 -15.5zM448 320q-68 2 -113 47
t-47 113q2 68 47 113t113 47q68 -2 113 -47t47 -113q-2 -68 -47 -113t-113 -47zM448 384q41 1 68 28t27 68t-27 68t-68 27t-68 -27t-27 -68t27 -68t68 -28z" />
    <glyph glyph-name="bank-card" unicode="&#xe74a;" 
d="M896 572q0 31 -2 45t-8 23q-7 15 -22 22q-9 6 -23 8t-45 2h-568q-31 0 -45 -2t-23 -8q-15 -7 -22 -22q-6 -9 -8 -23t-2 -45v-376q0 -31 2 -45t8 -23q7 -15 22 -22q9 -6 23 -8t45 -2h568q31 0 45 2t23 8q15 7 22 22q6 9 8 23t2 45v376zM960 572v-376q0 -42 -4.5 -63
t-12.5 -35q-17 -32 -48 -49q-15 -8 -36 -12.5t-63 -4.5h-568q-42 0 -63 4.5t-36 12.5q-31 17 -48 48q-8 15 -12.5 36t-4.5 63v376q0 42 4.5 63t12.5 36q17 31 48 48q15 8 36 12.5t63 4.5h568q42 0 63 -4.5t35 -12.5q32 -17 49 -48q8 -15 12.5 -36t4.5 -63zM64 576h896v-64
h-896v64zM64 448h896v-64h-896v64zM192 256h256v-64h-256v64z" />
    <glyph glyph-name="box" unicode="&#xe74b;" 
d="M317 768l-189 -216v-552h768v552l-189 216h-390zM303 832h418q15 0 25 -11l206 -236q8 -9 8 -21v-596q0 -14 -9 -23t-23 -9h-832q-14 0 -23 9t-9 23v596q0 12 8 21l206 236q10 11 25 11zM64 576h896v-64h-896v64zM448 568v-312h128v312l-50 200h-28zM448 832h128l64 -256
v-352q0 -14 -9 -23t-23 -9h-192q-14 0 -23 9t-9 23v352z" />
    <glyph glyph-name="present" unicode="&#xe74c;" 
d="M480 0v256h-288v64h288v256h-288v-576h288zM544 0h288v576h-288v-256h288v-64h-288v-256zM128 640h768v-672q0 -14 -9 -23t-23 -9h-704q-14 0 -23 9t-9 23v672zM64 640zM96 640h832q32 0 32 -32v0q0 -32 -32 -32h-832q-32 0 -32 32v0q0 32 32 32zM416 640q27 1 45 19
t18 45t-18 45t-45 18t-45 -18t-18 -45t18 -45t45 -19zM416 576q-54 1 -90.5 37.5t-37.5 90.5q1 54 37.5 90.5t90.5 37.5q54 -1 90.5 -37.5t37.5 -90.5q-1 -54 -37.5 -90.5t-90.5 -37.5zM608 640q27 1 45 19t18 45t-18 45t-45 18t-45 -18t-18 -45t18 -45t45 -19zM608 576
q-54 1 -90.5 37.5t-37.5 90.5q1 54 37.5 90.5t90.5 37.5q54 -1 90.5 -37.5t37.5 -90.5q-1 -54 -37.5 -90.5t-90.5 -37.5z" />
    <glyph glyph-name="shopping-bag-2" unicode="&#xe74d;" 
d="M192 576v-576h640v576h-640zM160 640h704q14 0 23 -9t9 -23v-640q0 -14 -9 -23t-23 -9h-704q-14 0 -23 9t-9 23v640q0 14 9 23t23 9zM640 448v192q-1 54 -37.5 90.5t-90.5 37.5q-54 -1 -90.5 -37.5t-37.5 -90.5v-192h-64v192q2 82 56 136t136 56q82 -2 136 -56t56 -136
v-192h-64z" />
    <glyph glyph-name="shopping-bag-1" unicode="&#xe74e;" 
d="M704 576v-96q0 -14 -9 -23t-23 -9h-32v128h-256v-128h-32q-14 0 -23 9t-9 23v96h-128v-576h640v576h-128zM320 640q2 82 56 136t136 56q82 -2 136 -56t56 -136h160q14 0 23 -9t9 -23v-640q0 -14 -9 -23t-23 -9h-704q-14 0 -23 9t-9 23v640q0 14 9 23t23 9h160zM384 640
h256q-1 54 -37.5 90.5t-90.5 37.5q-54 -1 -90.5 -37.5t-37.5 -90.5zM192 192h640v-64h-640v64z" />
    <glyph glyph-name="shopping-cart-2" unicode="&#xe74f;" 
d="M432 -32q-20 1 -33.5 14.5t-13.5 33.5t13.5 33.5t33.5 13.5t33.5 -13.5t13.5 -33.5t-13.5 -33.5t-33.5 -14.5zM752 -32q-20 1 -33.5 14.5t-13.5 33.5t13.5 33.5t33.5 13.5t33.5 -13.5t13.5 -33.5t-13.5 -33.5t-33.5 -14.5zM96 768q-14 0 -23 9t-9 23t9 23t23 9h160
q12 0 20.5 -7t10.5 -19l34 -166h607q15 0 24.5 -12t6.5 -27l-96 -448q-2 -11 -10.5 -18t-20.5 -7h-448q-12 0 -20.5 7t-10.5 19l-123 614h-134zM410 192h396l82 384h-555z" />
    <glyph glyph-name="shopping-cart-1" unicode="&#xe750;" 
d="M96 768h823q15 0 24.5 -12.5t6.5 -27.5l-112 -448q-3 -11 -11.5 -17.5t-19.5 -6.5h-551v-64h608q14 0 23 -9t9 -23t-9 -23t-23 -9h-672v576h-96q-14 0 -23 9t-9 23t9 23t23 9zM256 704v-384h526l96 384h-622zM368 -32q-20 1 -33.5 14.5t-13.5 33.5t13.5 33.5t33.5 13.5
t33.5 -13.5t13.5 -33.5t-13.5 -33.5t-33.5 -14.5zM688 -32q-20 1 -33.5 14.5t-13.5 33.5t13.5 33.5t33.5 13.5t33.5 -13.5t13.5 -33.5t-13.5 -33.5t-33.5 -14.5z" />
    <glyph glyph-name="shopping-cart-full" unicode="&#xe751;" 
d="M432 -32q-20 1 -33.5 14.5t-13.5 33.5t13.5 33.5t33.5 13.5t33.5 -13.5t13.5 -33.5t-13.5 -33.5t-33.5 -14.5zM752 -32q-20 1 -33.5 14.5t-13.5 33.5t13.5 33.5t33.5 13.5t33.5 -13.5t13.5 -33.5t-13.5 -33.5t-33.5 -14.5zM96 768q-14 0 -23 9t-9 23t9 23t23 9h160
q12 0 20.5 -7t10.5 -19l34 -166h607q15 0 24.5 -12t6.5 -27l-96 -448q-2 -11 -10.5 -18t-20.5 -7h-448q-12 0 -20.5 7t-10.5 19l-123 614h-134zM410 192h396l82 384h-555zM700 640l-92 110l-92 -110h184zM559 791q19 22 49 22t49 -22l179 -215h-456z" />
    <glyph glyph-name="smoking" unicode="&#xe752;" 
d="M256 320v-128h640v128h-640zM224 384h704q14 0 23 -9t9 -23v-192q0 -14 -9 -23t-23 -9h-704q-14 0 -23 9t-9 23v192q0 14 9 23t23 9zM704 320h64v-128h-64v128zM256 832h64v-320h-64v320zM128 704h64v-192h-64v192zM64 384h64v-256h-64v256z" />
    <glyph glyph-name="no-smoking" unicode="&#xe753;" 
d="M440 320h-184v-128h56l-64 -64h-24q-14 0 -23 9t-9 23v192q0 14 9 23t23 9h280zM584 192h120v120l72 72h152q14 0 23 -9t9 -23v-192q0 -14 -9 -23t-23 -9h-408zM768 320v-128h128v128h-128zM738 528l46 -46l-498 -498l-46 46zM256 832h64v-320h-64v320zM128 704h64v-192
h-64v192zM64 384h64v-256h-64v256z" />
    <glyph glyph-name="house" unicode="&#xe754;" 
d="M192 482v-482h640v482l-320 267zM140 522l352 293q9 7 20 7t20 -7l352 -293q12 -10 12 -25v-529q0 -14 -9 -23t-23 -9h-704q-14 0 -23 9t-9 23v529q0 15 12 25z" />
    <glyph glyph-name="table-lamp" unicode="&#xe755;" 
d="M320 0zM352 0h320q32 0 32 -32v0q0 -32 -32 -32h-320q-32 0 -32 32v0q0 32 32 32zM307 768l-99 -448h608l-99 448h-410zM282 832h460q12 0 20.5 -7t11.5 -18l113 -512q3 -15 -6.5 -27t-24.5 -12h-688q-15 0 -24.5 12t-6.5 27l113 512q3 11 11.5 18t20.5 7zM640 320z
M672 320v0q32 0 32 -32v-128q0 -32 -32 -32v0q-32 0 -32 32v128q0 32 32 32zM480 320h64v-384h-64v384z" />
    <glyph glyph-name="school" unicode="&#xe756;" 
d="M224 768v-704h576v704h-576zM192 832h640q14 0 23 -9t9 -23v-768q0 -14 -9 -23t-23 -9h-640q-14 0 -23 9t-9 23v768q0 14 9 23t23 9zM64 64h896v-64h-896v64zM320 704h128v-96h-128v96zM384 64h256v64q-1 54 -37.5 90.5t-90.5 37.5q-54 -1 -90.5 -37.5t-37.5 -90.5v-64z
M512 320q82 -2 136 -56t56 -136v-128h-384v128q2 82 56 136t136 56zM320 512h128v-96h-128v96zM576 704h128v-96h-128v96zM576 512h128v-96h-128v96z" />
    <glyph glyph-name="office-building" unicode="&#xe757;" 
d="M192 768v-704h384v704h-384zM160 832h448q14 0 23 -9t9 -23v-768q0 -14 -9 -23t-23 -9h-448q-14 0 -23 9t-9 23v768q0 14 9 23t23 9zM256 640h256v-64h-256v64zM256 448h256v-64h-256v64zM256 256h256v-64h-256v64zM640 384h128v-64h-128v64zM640 256h128v-64h-128v64z
M64 64h896v-64h-896v64zM640 512v-448h192v448h-192zM608 576h256q14 0 23 -9t9 -23v-512q0 -14 -9 -23t-23 -9h-256q-14 0 -23 9t-9 23v512q0 14 9 23t23 9z" />
    <glyph glyph-name="toilet-paper" unicode="&#xe758;" 
d="M595 768h-275q-82 -2 -136 -56t-56 -136v-576h384v544q0 68 22.5 126t60.5 98zM736 832q95 -3 158.5 -84.5t65.5 -203.5q-2 -122 -65.5 -203.5t-158.5 -84.5h-160v-320h-512v640q3 109 75 181t181 75h416zM576 544v-224h160q65 2 111.5 64.5t48.5 159.5
q-2 97 -48.5 159.5t-111.5 64.5q-65 -2 -111.5 -64.5t-48.5 -159.5zM736 448q-27 1 -45 28t-18 68t18 68t45 27t45 -27t18 -68t-18 -68t-45 -28z" />
    <glyph glyph-name="notebook-2" unicode="&#xe759;" 
d="M352 768v-768h-64v768h-96v-768h640v768h-480zM160 832h704q14 0 23 -9t9 -23v-832q0 -14 -9 -23t-23 -9h-704q-14 0 -23 9t-9 23v832q0 14 9 23t23 9zM448 640zM480 640h192q32 0 32 -32v0q0 -32 -32 -32h-192q-32 0 -32 32v0q0 32 32 32zM448 448zM480 448h192
q32 0 32 -32v0q0 -32 -32 -32h-192q-32 0 -32 32v0q0 32 32 32zM448 256zM480 256h192q32 0 32 -32v0q0 -32 -32 -32h-192q-32 0 -32 32v0q0 32 32 32z" />
    <glyph glyph-name="notebook-1" unicode="&#xe75a;" 
d="M192 768v-768h640v768h-640zM160 832h704q14 0 23 -9t9 -23v-832q0 -14 -9 -23t-23 -9h-704q-14 0 -23 9t-9 23v832q0 14 9 23t23 9zM672 768h64v-768h-64v768zM64 704zM96 704h128q32 0 32 -32v0q0 -32 -32 -32h-128q-32 0 -32 32v0q0 32 32 32zM64 512zM96 512h128
q32 0 32 -32v0q0 -32 -32 -32h-128q-32 0 -32 32v0q0 32 32 32zM64 320zM96 320h128q32 0 32 -32v0q0 -32 -32 -32h-128q-32 0 -32 32v0q0 32 32 32zM64 128zM96 128h128q32 0 32 -32v0q0 -32 -32 -32h-128q-32 0 -32 32v0q0 32 32 32z" />
    <glyph glyph-name="files" unicode="&#xe75b;" 
d="M128 512v-448h768v448h-768zM96 576h832q14 0 23 -9t9 -23v-512q0 -14 -9 -23t-23 -9h-832q-14 0 -23 9t-9 23v512q0 14 9 23t23 9zM160 704h704v-64h-704v64zM256 832h512v-64h-512v64z" />
    <glyph glyph-name="collection" unicode="&#xe75c;" 
d="M192 160h640v608h-576q-27 -1 -45 -19t-19 -45v-544zM256 832h608q14 0 23 -9t9 -23v-672q0 -14 -9 -23t-23 -9h-704l-32 -58v666q1 54 37.5 90.5t90.5 37.5zM240 96q-20 -1 -33.5 -14.5t-13.5 -33.5t13.5 -33.5t33.5 -14.5h592v96h-592zM240 160h656v-160
q-1 -27 -19 -45t-45 -19h-592q-48 1 -79.5 32.5t-32.5 79.5q1 48 32.5 79.5t79.5 32.5zM384 768v-251l96 77l96 -77v251h-192zM320 832h320v-381q-1 -20 -18.5 -28.5t-33.5 3.5l-108 86l-108 -86q-16 -12 -33.5 -3.5t-18.5 28.5v381z" />
    <glyph glyph-name="receiving" unicode="&#xe75d;" 
d="M288 512h448v-64h-448v64zM384 640h256v-64h-256v64zM131 384h253v-128h256v128h253l-171 320h-420zM896 320h-192v-128h-384v128h-192v-256h768v256zM276 768h472q20 -1 29 -18l180 -359q3 -7 3 -15v-344q0 -14 -9 -23t-23 -9h-832q-14 0 -23 9t-9 23v344q0 8 3 15
l180 359q9 17 29 18z" />
    <glyph glyph-name="picture-outline" unicode="&#xe75e;" 
d="M160 736v-704h704v704h-704zM128 800h768q14 0 23 -9t9 -23v-768q0 -14 -9 -23t-23 -9h-768q-14 0 -23 9t-9 23v768q0 14 9 23t23 9zM320 608zM384 608v0q64 0 64 -64v0q0 -64 -64 -64v0q-64 0 -64 64v0q0 64 64 64zM185 19l-50 39l216 282q24 31 63.5 36t70.5 -18
l125 -101q11 -8 23.5 -6.5t21.5 11.5l216 270l50 -40l-216 -270q-25 -31 -64.5 -35t-70.5 20l-124 100q-11 8 -23.5 6.5t-20.5 -12.5z" />
    <glyph glyph-name="picture-outline-round" unicode="&#xe75f;" 
d="M512 768q-163 -4 -271.5 -112.5t-112.5 -271.5q4 -163 112.5 -271.5t271.5 -112.5q163 4 271.5 112.5t112.5 271.5q-4 163 -112.5 271.5t-271.5 112.5zM512 832q190 -5 316.5 -131.5t131.5 -316.5q-5 -190 -131.5 -316.5t-316.5 -131.5q-190 5 -316.5 131.5t-131.5 316.5
q5 190 131.5 316.5t316.5 131.5zM576 608zM640 608v0q64 0 64 -64v0q0 -64 -64 -64v0q-64 0 -64 64v0q0 64 64 64zM215 105l-46 46l186 185q26 25 60 28t64 -18l138 -98q9 -7 20 -6t20 8l250 224l42 -48l-249 -224q-27 -22 -59.5 -24t-60.5 18l-139 98q-9 7 -20.5 6
t-20.5 -9z" />
    <glyph glyph-name="suitcase-1" unicode="&#xe760;" 
d="M128 512h768v64q-1 27 -19 45t-45 19h-640q-27 -1 -45 -19t-19 -45v-64zM128 448v-320q1 -27 19 -45t45 -19h64v384h-128zM320 64h384v384h-384v-384zM768 64h64q27 1 45 19t19 45v320h-128v-384zM192 704h640q54 -1 90.5 -37.5t37.5 -90.5v-448q-1 -54 -37.5 -90.5
t-90.5 -37.5h-640q-54 1 -90.5 37.5t-37.5 90.5v448q1 54 37.5 90.5t90.5 37.5zM384 768v-64h256v64h-256zM384 832h256q27 -1 45 -19t19 -45v-64q-1 -27 -19 -45t-45 -19h-256q-27 1 -45 19t-19 45v64q1 27 19 45t45 19z" />
    <glyph glyph-name="suitcase" unicode="&#xe761;" 
d="M128 512h768v64q-1 27 -19 45t-45 19h-640q-27 -1 -45 -19t-19 -45v-64zM128 448v-320q1 -27 19 -45t45 -19h640q27 1 45 19t19 45v320h-768zM192 704h640q54 -1 90.5 -37.5t37.5 -90.5v-448q-1 -54 -37.5 -90.5t-90.5 -37.5h-640q-54 1 -90.5 37.5t-37.5 90.5v448
q1 54 37.5 90.5t90.5 37.5zM384 768v-64h256v64h-256zM384 832h256q27 -1 45 -19t19 -45v-64q-1 -27 -19 -45t-45 -19h-256q-27 1 -45 19t-19 45v64q1 27 19 45t45 19z" />
    <glyph glyph-name="film" unicode="&#xe763;" 
d="M160 736v-704h704v704h-704zM128 800h768q14 0 23 -9t9 -23v-768q0 -14 -9 -23t-23 -9h-768q-14 0 -23 9t-9 23v768q0 14 9 23t23 9zM320 608v160h64v-352h256v352h64v-160h160v-64h-160v-128h160v-64h-160v-128h160v-64h-160v-160h-64v352h-256v-352h-64v160h-192v64
h192v128h-192v64h192v128h-192v64h192z" />
    <glyph glyph-name="edit-outline" unicode="&#xe764;" 
d="M832 384q0 14 9 23t23 9t23 -9t9 -23v-352q0 -14 -9 -23t-23 -9h-704q-14 0 -23 9t-9 23v704q0 14 9 23t23 9h352q14 0 23 -9t9 -23t-9 -23t-23 -9h-320v-640h640v320zM470 342l53 7l324 325q13 13 8.5 30.5t-22.5 22.5t-31 -8l-325 -324zM892 764q28 -28 28 -67.5
t-28 -68.5l-331 -331q-8 -8 -19 -10l-105 -15q-16 -2 -27 9.5t-9 27.5l15 105q1 11 9 18l332 332q29 28 67.5 28t67.5 -28z" />
    <glyph glyph-name="collection-tag" unicode="&#xe765;" 
d="M256 768v-699l196 157q27 21 60 21t60 -21l196 -157v699h-512zM224 832h576q14 0 23 -9t9 -23v-797q-1 -20 -18.5 -28.5t-33.5 3.5l-248 198q-9 7 -20 7t-20 -7l-248 -198q-16 -12 -33.5 -3.5t-18.5 28.5v797q0 14 9 23t23 9z" />
    <glyph glyph-name="data-analysis" unicode="&#xe766;" 
d="M665 128l111 -192h-74l-111 192h-158l-111 -192h-74l111 192h-199q-14 0 -23 9t-9 23v544h-64q-14 0 -23 9t-9 23t9 23t23 9h896q14 0 23 -9t9 -23t-9 -23t-23 -9h-64v-544q0 -14 -9 -23t-23 -9h-199zM832 704h-640v-512h640v512zM352 448q14 0 23 -9t9 -23v-64
q0 -14 -9 -23t-23 -9t-23 9t-9 23v64q0 14 9 23t23 9zM512 512q14 0 23 -9t9 -23v-128q0 -14 -9 -23t-23 -9t-23 9t-9 23v128q0 14 9 23t23 9zM672 576q14 0 23 -9t9 -23v-192q0 -14 -9 -23t-23 -9t-23 9t-9 23v192q0 14 9 23t23 9z" />
    <glyph glyph-name="pie-chart" unicode="&#xe767;" 
d="M448 828v-65q-150 -30 -238.5 -144t-79.5 -267q16 -152 122.5 -250t259.5 -102q144 3 248 91t131 229h64q-30 -178 -162.5 -284t-312.5 -98q-179 17 -295 141.5t-121 304.5q3 171 109 293.5t275 150.5zM576 799v-351h351q-15 143 -111.5 239.5t-239.5 111.5zM512 832v31
q98 6 188.5 -27.5t160 -103t103 -160t27.5 -188.5h-479v448z" />
    <glyph glyph-name="data-board" unicode="&#xe768;" 
d="M32 768h960v-64h-960v64zM192 704v-512h640v512h-640zM128 768h768v-608q0 -14 -9 -23t-23 -9h-704q-14 0 -23 9t-9 23v608zM322 -64h-74l145 251l55 -32zM776 -64h-74l-126 219l55 32z" />
    <glyph glyph-name="reading" unicode="&#xe769;" 
d="M512 33l384 54v639l-370 -53q-14 -2 -28 0l-370 53v-639zM137 790l370 -53q5 -1 10 0l370 53q29 3 50.5 -16t22.5 -48v-639q0 -24 -15.5 -41.5t-39.5 -21.5l-388 -55q-5 -1 -10 0l-388 55q-24 4 -39.5 21.5t-15.5 41.5v639q1 29 22.5 48t50.5 16zM480 704h64v-704h-64
v704z" />
    <glyph glyph-name="magic-stick" unicode="&#xe76a;" 
d="M512 832h64v-192h-64v192zM512 256h64v-192h-64v192zM160 416v64h192v-64h-192zM736 416v64h192v-64h-192zM250 697l45 45l136 -136l-45 -45zM657 290l45 45l136 -136l-45 -45zM114 -27l-45 45l317 317l45 -45zM702 561l-45 45l136 136l45 -45z" />
    <glyph glyph-name="coordinate" unicode="&#xe76b;" 
d="M480 384h64v-320h-64v320zM192 0h640q-1 27 -19 45t-45 19h-512q-27 -1 -45 -19t-19 -45zM256 128h512q54 -1 90.5 -37.5t37.5 -90.5v-64h-768v64q1 54 37.5 90.5t90.5 37.5zM512 384q82 2 136 56t56 136q-2 82 -56 136t-136 56q-82 -2 -136 -56t-56 -136q2 -82 56 -136
t136 -56zM512 320q-109 3 -181 75t-75 181q3 109 75 181t181 75q109 -3 181 -75t75 -181q-3 -109 -75 -181t-181 -75z" />
    <glyph glyph-name="mouse" unicode="&#xe76c;" 
d="M438 640q-50 0 -75 -4t-43 -14q-30 -16 -46 -46q-10 -18 -14 -43t-4 -75v-276q0 -50 4 -75t14 -43q16 -30 46 -46q18 -10 43 -14t75 -4h148q50 0 75 4t43 14q30 16 46 46q10 18 14 43t4 75v276q0 50 -4 75t-14 43q-16 30 -46 46q-18 10 -43 14t-75 4h-148zM438 704h148
q62 0 94 -6.5t54 -19.5q47 -25 72 -72q13 -22 19.5 -54t6.5 -94v-276q0 -62 -6.5 -94t-19.5 -54q-25 -47 -72 -72q-22 -13 -54 -19.5t-94 -6.5h-148q-62 0 -94 6.5t-54 19.5q-47 25 -72 72q-13 22 -19.5 54t-6.5 94v276q0 62 6.5 94t19.5 54q25 47 72 72q22 13 54 19.5
t94 6.5zM480 576zM512 576v0q32 0 32 -32v-128q0 -32 -32 -32v0q-32 0 -32 32v128q0 32 32 32zM544 672q0 -14 -9 -23t-23 -9t-23 9t-9 23v64q0 14 -9 23t-23 9h-96q-14 0 -23 9t-9 23t9 23t23 9h96q41 -1 68 -28t28 -68v-64z" />
    <glyph glyph-name="data-line" unicode="&#xe76d;" 
d="M359 128h-199q-14 0 -23 9t-9 23v544h-64q-14 0 -23 9t-9 23t9 23t23 9h896q14 0 23 -9t9 -23t-9 -23t-23 -9h-64v-544q0 -14 -9 -23t-23 -9h-199l111 -192h-74l-111 192h-158l-111 -192h-74zM832 704h-640v-512h640v512zM343 361q-10 -9 -23 -9t-22.5 9.5t-9.5 22.5
t9 23l148 147l125 -94l109 136q12 15 30.5 12.5t25 -20t-5.5 -32.5l-147 -184l-131 98z" />
    <glyph glyph-name="brush" unicode="&#xe76e;" 
d="M896 448h-768v-192q1 -27 19 -45t45 -19h192v-192h256v192h192q27 1 45 19t19 45v192zM125 512q0 71 16 128q22 81 83 160h417l-15 -70l110 70h211q-37 -64 -51 -160q-9 -64 -6 -128h70v-256q-1 -54 -37.5 -90.5t-90.5 -37.5h-128v-160q0 -14 -9 -23t-23 -9h-320
q-14 0 -23 9t-9 23v160h-128q-54 1 -90.5 37.5t-37.5 90.5v256h61zM189 512h637q-3 69 7 137q6 46 18 87h-96l-221 -141l28 141h-305q-39 -57 -54 -113q-14 -48 -14 -111z" />
    <glyph glyph-name="headset" unicode="&#xe76f;" 
d="M896 367v17q-4 163 -112.5 271.5t-271.5 112.5q-163 -4 -271.5 -112.5t-112.5 -271.5v-17q30 17 64 17t64 -17.5t47 -46.5t17 -64v-128q-1 -54 -37.5 -90.5t-90.5 -37.5q-54 1 -90.5 37.5t-37.5 90.5v256q5 190 131.5 316.5t316.5 131.5q190 -5 316.5 -131.5
t131.5 -316.5v-256q-1 -54 -37.5 -90.5t-90.5 -37.5q-54 1 -90.5 37.5t-37.5 90.5v128q0 35 17 64t47 46.5t64 17.5t64 -17zM896 256q-1 27 -19 45t-45 18t-45 -18t-19 -45v-128q1 -27 19 -45t45 -18t45 18t19 45v128zM128 256v-128q1 -27 19 -45t45 -18t45 18t19 45v128
q-1 27 -19 45t-45 18t-45 -18t-19 -45z" />
    <glyph glyph-name="umbrella" unicode="&#xe770;" 
d="M320 128q0 14 9 23t23 9t23 -9t9 -23q1 -27 19 -45t45 -18t45 18t19 45v256h-448q5 190 131.5 316.5t316.5 131.5q190 -5 316.5 -131.5t131.5 -316.5h-384v-256q-1 -54 -37.5 -90.5t-90.5 -37.5q-54 1 -90.5 37.5t-37.5 90.5zM891 448q-27 141 -131 229t-248 91
q-144 -3 -248 -91t-131 -229h758z" />
    <glyph glyph-name="scissors" unicode="&#xe771;" 
d="M512 318l-107 -153q1 -62 -36 -107t-98 -56q-61 -9 -110.5 22t-68.5 90q-17 59 7.5 112.5t80.5 79.5q57 24 113 6.5t89 -69.5l91 130l-276 395q-8 11 -5.5 23.5t13.5 20.5t23.5 5.5t20.5 -13.5l393 -561q34 52 89.5 69.5t112.5 -6.5q56 -26 80.5 -79.5t7.5 -112.5
q-19 -59 -68.5 -90t-110.5 -22q-60 11 -97.5 56t-36.5 107zM566 507l209 297q8 11 20.5 13.5t23.5 -5.5t13.5 -20.5t-5.5 -23.5l-221 -317l-39 56h-1zM190 81q22 -15 47 -17.5t49 8.5t38.5 32t17 47t-8.5 49t-33 38q-34 22 -71 15t-60 -40t-17 -70t38 -62zM834 81
q22 15 33 38t9 49.5t-16.5 47.5t-39 32t-50 8.5t-46.5 -18.5q-32 -24 -38 -61.5t17 -70t60 -39.5t71 14z" />
    <glyph glyph-name="video-camera" unicode="&#xe772;" 
d="M704 128v512h-576v-512h576zM768 544l192 96v-512l-192 96v-128q0 -14 -9 -23t-23 -9h-640q-14 0 -23 9t-9 23v576q0 14 9 23t23 9h640q14 0 23 -9t9 -23v-128zM768 472v-176l128 -64v304zM192 576h192v-64h-192v64z" />
    <glyph glyph-name="mobile" unicode="&#xe773;" 
d="M256 768q-27 -1 -45 -19t-19 -45v-640q1 -27 19 -45t45 -19h512q27 1 45 19t19 45v640q-1 27 -19 45t-45 19h-512zM256 832h512q54 -1 90.5 -37.5t37.5 -90.5v-640q-1 -54 -37.5 -90.5t-90.5 -37.5h-512q-54 1 -90.5 37.5t-37.5 90.5v640q1 54 37.5 90.5t90.5 37.5z
M384 704h256q14 0 23 -9t9 -23t-9 -23t-23 -9h-256q-14 0 -23 9t-9 23t9 23t23 9zM512 64q-27 1 -45 19t-18 45t18 45t45 18t45 -18t18 -45t-18 -45t-45 -19z" />
    <glyph glyph-name="attract" unicode="&#xe774;" 
d="M832 576v128h-128v-320q-2 -82 -56 -136t-136 -56q-82 2 -136 56t-56 136v320h-128v-128h128v-64h-128v-128q3 -136 93.5 -226.5t226.5 -93.5q136 3 226.5 93.5t93.5 226.5v128h-128v64h128zM640 384v384h256v-384q-4 -163 -112.5 -271.5t-271.5 -112.5
q-163 4 -271.5 112.5t-112.5 271.5v384h256v-384q1 -54 37.5 -90.5t90.5 -37.5q54 1 90.5 37.5t37.5 90.5z" />
    <glyph glyph-name="monitor" unicode="&#xe775;" 
d="M544 128v-128h192q14 0 23 -9t9 -23t-9 -23t-23 -9h-448q-14 0 -23 9t-9 23t9 23t23 9h192v128h-288q-54 1 -90.5 37.5t-37.5 90.5v384q1 54 37.5 90.5t90.5 37.5h640q54 -1 90.5 -37.5t37.5 -90.5v-384q-1 -54 -37.5 -90.5t-90.5 -37.5h-288zM192 704q-27 -1 -45 -19
t-19 -45v-384q1 -27 19 -45t45 -19h640q27 1 45 19t19 45v384q-1 27 -19 45t-45 19h-640z" />
    <glyph glyph-name="zoom-out" unicode="&#xe776;" 
d="M796 145l125 -125q9 -10 9 -22.5t-9.5 -22t-22 -9.5t-22.5 9l-125 125q-133 -109 -295 -99.5t-281 132.5q-114 129 -111 291t122 286q124 119 286 122t291 -111q123 -119 132.5 -281t-99.5 -295zM480 64q150 4 249 103t103 249q-4 150 -103 249t-249 103
q-150 -4 -249 -103t-103 -249q4 -150 103 -249t249 -103zM352 448h256q14 0 23 -9t9 -23t-9 -23t-23 -9h-256q-14 0 -23 9t-9 23t9 23t23 9z" />
    <glyph glyph-name="zoom-in" unicode="&#xe777;" 
d="M796 145l125 -125q9 -10 9 -22.5t-9.5 -22t-22 -9.5t-22.5 9l-125 125q-133 -109 -295 -99.5t-281 132.5q-114 129 -111 291t122 286q124 119 286 122t291 -111q123 -119 132.5 -281t-99.5 -295zM480 64q150 4 249 103t103 249q-4 150 -103 249t-249 103
q-150 -4 -249 -103t-103 -249q4 -150 103 -249t249 -103zM448 448v96q0 14 9 23t23 9t23 -9t9 -23v-96h96q14 0 23 -9t9 -23t-9 -23t-23 -9h-96v-96q0 -14 -9 -23t-23 -9t-23 9t-9 23v96h-96q-14 0 -23 9t-9 23t9 23t23 9h96z" />
    <glyph glyph-name="search" unicode="&#xe778;" 
d="M796 145l125 -125q9 -10 9 -22.5t-9.5 -22t-22 -9.5t-22.5 9l-125 125q-133 -109 -295 -99.5t-281 132.5q-114 129 -111 291t122 286q124 119 286 122t291 -111q123 -119 132.5 -281t-99.5 -295zM480 64q150 4 249 103t103 249q-4 150 -103 249t-249 103
q-150 -4 -249 -103t-103 -249q4 -150 103 -249t249 -103z" />
    </font>
</defs>
</svg>
